当前位置: 首页 >> 欧美电影 >> 巨齿鲨[双语字幕].The.Meg.2018.1080p.BluRay.x264.DTS-迅雷下载 12.30GB >> 正文

巨齿鲨[双语字幕].The.Meg.2018.1080p.BluRay.x264.DTS-迅雷下载 12.30GB

2021年07月05日 11:27:22     电影发布:来源于网络     电影分类:欧美电影     评论(0)    

巨齿鲨[双语字幕].The.Meg.2018.1080p.BluRay.x264.DTS 迅雷下载 12.30GB 科幻片 惊悚片 动作片 欧美电影  第1张

◎译 名 巨齿鲨/极悍巨鲨(港)/麦格

◎片 名 The Meg

◎年 代 2018

◎产 地 美国,中国大陆,中国香港

◎类 别 动作 / 科幻 / 惊悚

◎语 言 英语,汉语普通话,泰语

◎上映日期 2018-08-10(美国/中国大陆) / 2020-08-09(中国大陆重映)

◎豆瓣评分 5.7/10 from 195344 users

◎豆瓣链接 https://movie.douban.com/subject/26426194/

◎片 长 115分钟(中国大陆)

◎导 演 乔·德特杜巴 Jon Turteltaub

◎编 剧 迪恩·乔格瑞斯 Dean Georgaris / 乔·霍贝尔 Jon Hoeber / 埃里希·霍贝尔 Erich Hoeber / 史蒂夫·艾尔顿 Steve Alten

◎主 演 杰森·斯坦森 Jason Statham

李冰冰 Bingbing Li

雷恩·威尔森 Rainn Wilson

鲁比·罗丝 Ruby Rose

赵文瑄 Winston Chao

佩吉·肯尼迪 Page Kennedy

杰西卡·麦克娜美 Jessica McNamee

奥拉维尔·达里·奥拉夫松 ólafur Darri ólafsson

罗伯特·泰勒 Robert Taylor

蔡书雅 Sophia Cai

丘增 Masi Oka

克利夫·柯蒂斯 Cliff Curtis

安柚鑫 Yoson An

罗伯·基帕-威廉姆斯 Rob Kipa-Williams

维他亚·潘斯林加姆 Vithaya Pansringarm

安得烈·格兰杰 Andrew Grainger

蒂姆·王 Tim Wong

史蒂文·A·戴维斯 Steven A. Davis

托万达·马尼莫 Tawanda Manyimo

买红妹 Hongmei Mai

格伦·利维 Glen Levy

杰瑞米·谭 Jeremy Tan

迪伦·托马斯·奈特 Dylan Thomas Knight

詹姆斯·盖林 James Gaylyn

狗狗凯利 Kelly the Dog

◎标 签 怪兽 | 灾难 | 美国 | 科幻 | 惊悚 | 动作 | 冒险 | 2018

◎简 介

一项由中国主导的国际科研项目,正在马里亚纳海沟深处进行时,遭遇未知生物攻击,科研人员被困海底。前美国海军陆战队深海潜水专家乔纳斯·泰勒受命前往营救,再度遭遇数年前曾经在深海给自己留下终身难以磨灭记忆的史前生物巨齿鲨。乔纳斯联手科研项目中的中国女科学家张苏茵成功营救了被困人员,但营救行动却意外造成了巨齿鲨逃离深海。当史前巨兽重返浅海,人类将为自己对大自然的贪婪付出惨重的代价......

◎获奖情况

第39届金酸莓奖 ?(2019)

最差前传、重拍、恶搞及续集电影(提名)

  1. General

  2. Unique ID : 161779871487543399860442818245250727428 (0x79B5AB7DE4283EFCAA6DF828F68B3E04)

  3. Complete name : The.Meg.2018.1080p.BluRay.x264.DTS-PTH.mkv

  4. Format : Matroska

  5. Format version : Version 4

  6. File size : 12.3 GiB

  7. Duration : 1 h 53 min

  8. Overall bit rate : 15.6 Mb/s

  9. Encoded date : UTC 2021-07-02 07:31:38

  10. Writing application : mkvmerge v57.0.0 ('Till The End') 64-bit

  11. Writing library : libebml v1.4.2 + libmatroska v1.6.4


  12. Video

  13. ID : 1

  14. Format : AVC

  15. Format/Info : Advanced Video Codec

  16. Format profile : High@L4.1

  17. Format settings : CABAC / 4 Ref Frames

  18. Format settings, CABAC : Yes

  19. Format settings, Reference frames : 4 frames

  20. Codec ID : V_MPEG4/ISO/AVC

  21. Duration : 1 h 53 min

  22. Bit rate : 14.0 Mb/s

  23. Width : 1 920 pixels

  24. Height : 804 pixels

  25. Display aspect ratio : 2.40:1

  26. Frame rate mode : Constant

  27. Frame rate : 23.976 (24000/1001/53354) FPS

  28. Color space : YUV

  29. Chroma subsampling : 4:2:0

  30. Bit depth : 8 bits

  31. Scan type : Progressive

  32. Bits/(Pixel*Frame) : 0.378

  33. Stream size : 11.1 GiB (90%)

  34. Writing library : x264 core 163 r3059+79M f2a8266 t_mod_test_xavc [(8 & 10)-bit@all X86_64]

  35. Encoding settings : cabac=1 / ref=4 / deblock=1:-3:-3 / analyse=0x3:0x133 / me=umh / subme=11 / psy=1 / fade_compensate=0.00 / psy_rd=1.00:0.00 / mixed_ref=1 / me_range=48 / chroma_me=1 / trellis=2 / 8x8dct=1 / cqm=0 / deadzone=21,11 / fast_pskip=0 / chroma_qp_offset=-3 / threads=25 / lookahead_threads=6 / sliced_threads=0 / nr=0 / decimate=0 / interlaced=0 / NTMzNTQ= / bluray_compat=0 / constrained_intra=0 / fgo=0 / bframes=11 / b_pyramid=2 / b_adapt=2 / b_bias=0 / direct=3 / weightb=1 / open_gop=0 / weightp=2 / keyint=240 / keyint_min=1 / NTMzNTQ=uuDQuD2mJt9fsCf / scenecut=40 / intra_refresh=0 / rc_lookahead=72 / rc=crf / mbtree=0 / crf=18.0000 / qcomp=0.65 / qpmin=0:0:0 / qpmax=69:69:69 / qpstep=4 / vbv_maxrate=62500 / vbv_bufsize=78125 / crf_max=0.0 / nal_hrd=none / filler=0 / NTMzNTQ=LmsMAP37EqsCpk / ip_ratio=1.40 / pb_ratio=1.30 / aq=3:0.90 / aq-sensitivity=10.00 / aq-factor=1.00:1.00:1.00 / aq2=0 / aq3=0

  36. Language : English

  37. Default : Yes

  38. Forced : No


  39. Audio

  40. ID : 2

  41. ID in the original source medium : 4353 (0x1101)

  42. Format : DTS

  43. Format/Info : Digital Theater Systems

  44. Codec ID : A_DTS

  45. Duration : 1 h 53 min

  46. Bit rate mode : Constant

  47. Bit rate : 1 509 kb/s

  48. Channel(s) : 6 channels

  49. Channel layout : C L R Ls Rs LFE

  50. Sampling rate : 48.0 kHz

  51. Frame rate : 93.750 FPS (512 SPF)

  52. Bit depth : 16 bits

  53. Compression mode : Lossy

  54. Stream size : 1.19 GiB (10%)

  55. Language : English

  56. Default : No

  57. Forced : No

  58. Original source medium : Blu-ray


  59. Text #1

  60. ID : 3

  61. ID in the original source medium : 4615 (0x1207)

  62. Format : PGS

  63. Muxing mode : zlib

  64. Codec ID : S_HDMV/PGS

  65. Codec ID/Info : Picture based subtitle format used on BDs/HD-DVDs

  66. Duration : 1 h 41 min

  67. Bit rate : 41.6 kb/s

  68. Count of elements : 2542

  69. Stream size : 30.2 MiB (0%)

  70. Title : chs&eng

  71. Language : Chinese

  72. Default : No

  73. Forced : Yes

  74. Original source medium : Blu-ray


  75. Text #2

  76. ID : 4

  77. ID in the original source medium : 4616 (0x1208)

  78. Format : PGS

  79. Muxing mode : zlib

  80. Codec ID : S_HDMV/PGS

  81. Codec ID/Info : Picture based subtitle format used on BDs/HD-DVDs

  82. Duration : 1 h 41 min

  83. Bit rate : 42.0 kb/s

  84. Count of elements : 2542

  85. Stream size : 30.5 MiB (0%)

  86. Title : cht&eng

  87. Language : Chinese

  88. Default : No

  89. Forced : No

  90. Original source medium : Blu-ray


  91. Text #3

  92. ID : 5

  93. ID in the original source medium : 4617 (0x1209)

  94. Format : PGS

  95. Muxing mode : zlib

  96. Codec ID : S_HDMV/PGS

  97. Codec ID/Info : Picture based subtitle format used on BDs/HD-DVDs

  98. Duration : 1 h 41 min

  99. Bit rate : 23.1 kb/s

  100. Count of elements : 2542

  101. Stream size : 16.8 MiB (0%)

  102. Title : chs

  103. Language : Chinese

  104. Default : No

  105. Forced : No

  106. Original source medium : Blu-ray


  107. Text #4

  108. ID : 6

  109. ID in the original source medium : 4618 (0x120A)

  110. Format : PGS

  111. Muxing mode : zlib

  112. Codec ID : S_HDMV/PGS

  113. Codec ID/Info : Picture based subtitle format used on BDs/HD-DVDs

  114. Duration : 1 h 41 min

  115. Bit rate : 23.5 kb/s

  116. Count of elements : 2542

  117. Stream size : 17.1 MiB (0%)

  118. Title : cht

  119. Language : Chinese

  120. Default : No

  121. Forced : No

  122. Original source medium : Blu-ray


  123. Text #5

  124. ID : 7

  125. ID in the original source medium : 4608 (0x1200)

  126. Format : PGS

  127. Muxing mode : zlib

  128. Codec ID : S_HDMV/PGS

  129. Codec ID/Info : Picture based subtitle format used on BDs/HD-DVDs

  130. Duration : 1 h 52 min

  131. Bit rate : 33.9 kb/s

  132. Count of elements : 2960

  133. Stream size : 27.2 MiB (0%)

  134. Language : English

  135. Default : No

  136. Forced : No

  137. Original source medium : Blu-ray


  138. Menu

  139. 00:00:00.000 : 第 01 章

  140. 00:08:48.694 : 第 02 章

  141. 00:18:14.259 : 第 03 章

  142. 00:27:09.878 : 第 04 章

  143. 00:39:30.534 : 第 05 章

  144. 00:49:10.989 : 第 06 章

  145. 00:58:01.478 : 第 07 章

  146. 01:08:22.890 : 第 08 章

  147. 01:19:45.947 : 第 09 章

  148. 01:30:04.399 : 第 10 章

  149. 01:42:40.988 : 第 11 章



文件下载


除非特别注明,本文『巨齿鲨[双语字幕].The.Meg.2018.1080p.BluRay.x264.DTS-迅雷下载 12.30GB』来源于互联网机器人自动抓取,非本站原创。 浮游电影网不对本文拥有版权,如有侵犯,请联系邮箱:fuyouu#yandex.com[#换成@]投诉。我们会在15个工作日内删除。 但烦请转载时请标明出处:“本文转载于『浮游电影网』,原文地址:https://www.fuyouu.com/12882.html

评论吧骚年!

发表你的见解   

昵称*

E-mail*(建议输入,以便收到博主回复的提示邮件)

验证码*

您可以使用eMule或eMule Mod(Windows)、aMule(Win、Linux、Mac)等软件下载eD2k链接。。
eMule收藏集(.emulecollection)文件是您选中的所有链接的列表文件。eMule可以直接下载它们。
按住SHIFT键选择可以选中多个选择框。
可用文件名和大小选择器来选择文件。
文件名选择器帮您根据文件名称或后缀来选择文件。不分大小写。
符号使用:
和:空格( )、+
不包含:-
或:|
转义:一对英文引号("");
匹配开头:^
匹配结尾:$
例如:
选中所有名称中包含有“eMule”或“0.49c”字眼,但不包含有“exe”字眼的:emule|0.49c -exe
选中所有名称的开头是“eMule”,结尾是“0.49c”的:^emule 0.49c$
选中所有名称中带有“eMule 0.49c”的(必须是“eMule 0.49c”,中间没有别的字符,不能是“eMule fake 0.49c”),需要转义:"emule 0.49c"
大小选择器帮您根据文件大小选择文件。