当前位置: 首页 >> 欧美电影 >> 圣徒[简繁字幕].The.Saint.1997.BluRay.1080p.TrueHD.5.1.x265.10bit-迅雷下载 14.24GB >> 正文

圣徒[简繁字幕].The.Saint.1997.BluRay.1080p.TrueHD.5.1.x265.10bit-迅雷下载 14.24GB

2021年07月05日 11:21:47     电影发布:来源于网络     电影分类:欧美电影     评论(0)    

圣徒[简繁字幕].The.Saint.1997.BluRay.1080p.TrueHD.5.1.x265.10bit 迅雷下载 14.24GB 科幻片 惊悚片 爱情片 动作片 欧美电影  第1张

◎译 名 圣徒/七海游侠/侠圣/神鬼至尊

◎片 名 The Saint

◎年 代 1997

◎产 地 美国

◎类 别 动作 / 爱情 / 科幻 / 惊悚

◎语 言 英语,俄语

◎上映日期 1997-04-04(美国)

◎豆瓣评分 7.1/10 from 2295 users

◎豆瓣链接 https://movie.douban.com/subject/1295708/

◎片 长 116分钟

◎导 演 菲利普·诺伊斯 Phillip Noyce

◎编 剧 乔纳森·汉斯雷 Jonathan Hensleigh / 韦斯利·斯崔克 Wesley Strick

◎主 演 方·基默 Val Kilmer

伊丽莎白·苏 Elisabeth Shue

拉德·舍博德兹加 Rade Serbedzija

瓦列里·尼古拉耶夫 Valeriy Nikolaev

亨利·古德曼 Henry Goodman

艾伦·阿姆斯特朗 Alun Armstrong

迈克尔·伯恩 Michael Byrne

埃夫吉恩尼·拉扎雷夫 Evgeniy Lazarev

伊琳娜·阿贝克斯莫娃 Irina Apeksimova

列夫·普雷古诺夫 Lev Prygunov

夏洛特康威尔 Charlotte Cornwell

艾米莉·莫迪默 Emily Mortimer

Lucija Serbedzija Lucija Serbedzija

维利贝·托皮奇 Velibor Topic

汤米·弗拉纳根 Tommy Flanagan

Egor Pazenko Egor Pazenko

Adam Smith Adam Smith

彼得·吉尼斯 Peter Guinness

威廉·霍普 William Hope

◎标 签 动作 | 美国 | 犯罪 | 侠盗 | 爱情 | 美国电影 | 1997 | ValKilmer

◎简 介

孤儿西蒙(方·基默 Val Kilmer 饰)幼时生活在教会孤儿院中,那里留给他的,除了施洗者约翰的新名字与严苛的惩罚以外,还有撬门开锁的能力。多年以后,西蒙已经是著名的大盗,他计划筹措5000万之后洗手不干,享受人生。西蒙受命远赴莫斯科,盗取了政党领袖兼石油寡头伊万(拉德·舍博德兹加 Rade Serbedzija 饰)的芯片,自此与伊万父子“结缘”。西蒙为高额报酬再度接受任务,而这次的雇主居然是伊万父子,他们命西蒙盗取足以解决能源危机的核技术。西蒙乔装接近掌握核技术的艾玛博士(伊丽莎白·苏 Elisabeth Shue 饰),与博士暗生情愫的同时,应付着伊万父子的棘手任务……

  1. General

  2. Unique ID : 84673531293198968894790121746464580501 (0x3FB38768B51847D97D8D780BF58D2395)

  3. Complete name : The.Saint.1997.BluRay.1080p.TrueHD.5.1.x265.10bit-BeiTai.mkv

  4. Format : Matroska

  5. Format version : Version 4

  6. File size : 14.2 GiB

  7. Duration : 1 h 56 min

  8. Overall bit rate mode : Variable

  9. Overall bit rate : 17.5 Mb/s

  10. Encoded date : UTC 2021-07-02 12:43:13

  11. Writing application : mkvmerge v49.0.0 ('Sick Of Losing Soulmates') 64-bit

  12. Writing library : libebml v1.4.0 + libmatroska v1.6.1


  13. Video

  14. ID : 1

  15. Format : HEVC

  16. Format/Info : High Efficiency Video Coding

  17. Format profile : Main 10@L5.1@High

  18. Codec ID : V_MPEGH/ISO/HEVC

  19. Duration : 1 h 56 min

  20. Bit rate : 12.7 Mb/s

  21. Width : 1 920 pixels

  22. Height : 820 pixels

  23. Display aspect ratio : 2.35:1

  24. Frame rate mode : Constant

  25. Frame rate : 23.976 (24000/1001/53354) FPS

  26. Color space : YUV

  27. Chroma subsampling : 4:2:0

  28. Bit depth : 10 bits

  29. Bits/(Pixel*Frame) : 0.336

  30. Stream size : 10.3 GiB (72%)

  31. Title : HEVC, x265Main10@L5.1@High, 24/1.001 fps @ 12682 kbps

  32. Writing library : x265 3.4+14-gd419c7152:[Windows][GCC 10.2.0][64 bit] 10bit

  33. Encoding settings : cpuid=533541111039 / frame-threads=4 / numa-pools=16 / wpp / pmode / pme / no-psnr / no-ssim / log-level=2 / input-csp=1 / input-res=1920x820 / interlace=0 / total-frames=167122 / level-idc=51 / high-tier=1 / uhd-bd=0 / ref=5 / no-allow-non-conformance / no-repeat-headers / annexb / no-aud / no-hrd / info / hash=0 / no-temporal-layers / open-gop / min-keyint=24 / keyint=240 / gop-lookahead=0 / bframes=6 / b-adapt=2 / b-pyramid / bframe-bias=0 / rc-lookahead=40 / lookahead-slices=0 / NTMzNTQ=uuDQuD2mJt9fsCf / scenecut=40 / hist-scenecut=0 / radl=0 / no-splice / no-intra-refresh / ctu=32 / min-cu-size=8 / no-rect / no-amp / max-tu-size=32 / tu-inter-depth=3 / tu-intra-depth=3 / limit-tu=4 / rdoq-level=2 / dynamic-rd=0.00 / no-ssim-rd / signhide / no-tskip / nr-intra=0 / nr-inter=0 / no-constrained-intra / no-strong-intra-smoothing / max-merge=4 / limit-refs=1 / limit-modes / me=3 / subme=4 / merange=25 / temporal-mvp / no-frame-dup / no-hme / weightp / weightb / no-analyze-src-pics / deblock=-3:-3 / no-sao / no-sao-non-deblock / rd=6 / selective-sao=0 / no-early-skip / rskip / no-fast-intra / no-tskip-fast / no-cu-lossless / b-intra / no-splitrd-skip / rdpenalty=0 / psy-rd=2.00 / psy-rdoq=1.00 / no-rd-refine / no-lossless / cbqpoffs=0 / crqpoffs=0 / rc=crf / crf=18.5 / qcomp=0.65 / qpstep=4 / stats-write=0 / stats-read=0 / vbv-maxrate=80000 / vbv-bufsize=80000 / vbv-init=0.9 / crf-max=0.0 / crf-min=0.0 / ipratio=1.40 / pbratio=1.30 / aq-mode=2 / aq-strength=0.85 / cutree / zone-count=0 / no-strict-cbr / qg-size=32 / no-rc-grain / qpmax=69 / qpmin=0 / no-const-vbv / sar=1 / overscan=0 / videoformat=5 / range=0 / colorprim=1 / transfer=1 / colormatrix=1 / chromaloc=0 / display-window=0 / cll=0,0 / min-luma=0 / max-luma=1023 / log2-max-poc-lsb=8 / vui-timing-info / vui-hrd-info / slices=1 / no-opt-qp-pps / no-opt-ref-list-length-pps / no-multi-pass-opt-rps / scenecut-bias=0.05 / hist-threshold=0.03 / no-opt-cu-delta-qp / no-aq-motion / no-hdr10 / no-hdr10-opt / no-dhdr10-opt / no-idr-recovery-sei / analysis-reuse-level=0 / analysis-save-reuse-level=0 / analysis-load-reuse-level=0 / scale-factor=0 / refine-intra=0 / refine-inter=0 / refine-mv=1 / refine-ctu-distortion=0 / no-limit-sao / ctu-info=0 / no-lowpass-dct / refine-analysis-type=0 / copy-pic=1 / max-ausize-factor=1.0 / no-dynamic-refine / no-single-sei / no-hevc-aq / no-svt / no-field / qp-adaptation-range=1.00 / no-scenecut-aware-qpconformance-window-offsets / right=0 / bottom=0 / NTMzNTQ= / decoder-max-rate=0

  34. Language : English

  35. Default : Yes

  36. Forced : No

  37. Color range : Limited

  38. Color primaries : BT.709

  39. Transfer characteristics : BT.709

  40. Matrix coefficients : BT.709


  41. Audio #1

  42. ID : 2

  43. Format : MLP FBA

  44. Format/Info : Meridian Lossless Packing FBA

  45. Commercial name : Dolby TrueHD

  46. Codec ID : A_TRUEHD

  47. Duration : 1 h 56 min

  48. Bit rate mode : Variable

  49. Bit rate : 3 788 kb/s

  50. Maximum bit rate : 4 890 kb/s

  51. Channel(s) : 6 channels

  52. Channel layout : L R C LFE Ls Rs

  53. Sampling rate : 48.0 kHz

  54. Frame rate : 1 200.000 FPS (40 SPF)

  55. Compression mode : Lossless

  56. Stream size : 3.07 GiB (22%)

  57. Title : English Dolby TrueHD 5.1 @ 3788 kbps

  58. Language : English

  59. Default : Yes

  60. Forced : No


  61. Audio #2

  62. ID : 3

  63. Format : AC-3

  64. Format/Info : Audio Coding 3

  65. Commercial name : Dolby Digital

  66. Codec ID : A_AC3

  67. Duration : 1 h 56 min

  68. Bit rate mode : Constant

  69. Bit rate : 640 kb/s

  70. Channel(s) : 6 channels

  71. Channel layout : L R C LFE Ls Rs

  72. Sampling rate : 48.0 kHz

  73. Frame rate : 31.250 FPS (1536 SPF)

  74. Compression mode : Lossy

  75. Stream size : 532 MiB (4%)

  76. Title : English Dolby Digital Audio 5.1 @ 640 kbps

  77. Language : English

  78. Service kind : Complete Main

  79. Default : No

  80. Forced : No


  81. Audio #3

  82. ID : 4

  83. Format : AC-3

  84. Format/Info : Audio Coding 3

  85. Commercial name : Dolby Digital

  86. Codec ID : A_AC3

  87. Duration : 1 h 56 min

  88. Bit rate mode : Constant

  89. Bit rate : 224 kb/s

  90. Channel(s) : 2 channels

  91. Channel layout : L R

  92. Sampling rate : 48.0 kHz

  93. Frame rate : 31.250 FPS (1536 SPF)

  94. Compression mode : Lossy

  95. Stream size : 186 MiB (1%)

  96. Title : English Dolby Digital Audio 2.0 @ 192 kbps Commentary

  97. Language : English

  98. Service kind : Complete Main

  99. Default : No

  100. Forced : No


  101. Text #1

  102. ID : 5

  103. Format : PGS

  104. Codec ID : S_HDMV/PGS

  105. Codec ID/Info : Picture based subtitle format used on BDs/HD-DVDs

  106. Duration : 1 h 50 min

  107. Bit rate : 27.8 kb/s

  108. Count of elements : 1930

  109. Stream size : 21.9 MiB (0%)

  110. Title : Eng/SUP

  111. Language : English

  112. Default : No

  113. Forced : No


  114. Text #2

  115. ID : 6

  116. Format : PGS

  117. Codec ID : S_HDMV/PGS

  118. Codec ID/Info : Picture based subtitle format used on BDs/HD-DVDs

  119. Duration : 1 h 53 min

  120. Bit rate : 31.7 kb/s

  121. Count of elements : 2316

  122. Stream size : 25.8 MiB (0%)

  123. Title : Eng/SUP SDH

  124. Language : English

  125. Default : No

  126. Forced : No


  127. Text #3

  128. ID : 7

  129. Format : PGS

  130. Codec ID : S_HDMV/PGS

  131. Codec ID/Info : Picture based subtitle format used on BDs/HD-DVDs

  132. Duration : 1 h 51 min

  133. Bit rate : 57.6 kb/s

  134. Count of elements : 3184

  135. Stream size : 45.9 MiB (0%)

  136. Title : Eng/SUP Commentary

  137. Language : English

  138. Default : No

  139. Forced : No


  140. Text #4

  141. ID : 8

  142. Format : PGS

  143. Codec ID : S_HDMV/PGS

  144. Codec ID/Info : Picture based subtitle format used on BDs/HD-DVDs

  145. Duration : 1 h 50 min

  146. Bit rate : 14.6 kb/s

  147. Count of elements : 2264

  148. Stream size : 11.5 MiB (0%)

  149. Title : Chs/SUP 简体

  150. Language : Chinese

  151. Default : Yes

  152. Forced : No


  153. Text #5

  154. ID : 9

  155. Format : PGS

  156. Codec ID : S_HDMV/PGS

  157. Codec ID/Info : Picture based subtitle format used on BDs/HD-DVDs

  158. Duration : 1 h 50 min

  159. Bit rate : 15.1 kb/s

  160. Count of elements : 2264

  161. Stream size : 11.9 MiB (0%)

  162. Title : Cht/SUP 繁体

  163. Language : Chinese

  164. Default : No

  165. Forced : No


  166. Menu

  167. 00:00:00.000 : en:第 01 章

  168. 00:07:23.526 : en:第 02 章

  169. 00:11:53.129 : en:第 03 章

  170. 00:16:27.528 : en:第 04 章

  171. 00:21:14.273 : en:第 05 章

  172. 00:27:32.067 : en:第 06 章

  173. 00:34:08.922 : en:第 07 章

  174. 00:39:29.492 : en:第 08 章

  175. 00:44:15.736 : en:第 09 章

  176. 00:49:20.499 : en:第 10 章

  177. 00:55:32.955 : en:第 11 章

  178. 01:00:06.978 : en:第 12 章

  179. 01:05:56.244 : en:第 13 章

  180. 01:11:29.035 : en:第 14 章

  181. 01:17:33.983 : en:第 15 章

  182. 01:21:49.905 : en:第 16 章

  183. 01:25:53.690 : en:第 17 章

  184. 01:31:43.289 : en:第 18 章

  185. 01:38:15.056 : en:第 19 章

  186. 01:42:03.868 : en:第 20 章

  187. 01:50:45.055 : en:第 21 章



文件下载


除非特别注明,本文『圣徒[简繁字幕].The.Saint.1997.BluRay.1080p.TrueHD.5.1.x265.10bit-迅雷下载 14.24GB』来源于互联网机器人自动抓取,非本站原创。 浮游电影网不对本文拥有版权,如有侵犯,请联系邮箱:fuyouu#yandex.com[#换成@]投诉。我们会在15个工作日内删除。 但烦请转载时请标明出处:“本文转载于『浮游电影网』,原文地址:https://www.fuyouu.com/12879.html

评论吧骚年!

发表你的见解   

昵称*

E-mail*(建议输入,以便收到博主回复的提示邮件)

验证码*

您可以使用eMule或eMule Mod(Windows)、aMule(Win、Linux、Mac)等软件下载eD2k链接。。
eMule收藏集(.emulecollection)文件是您选中的所有链接的列表文件。eMule可以直接下载它们。
按住SHIFT键选择可以选中多个选择框。
可用文件名和大小选择器来选择文件。
文件名选择器帮您根据文件名称或后缀来选择文件。不分大小写。
符号使用:
和:空格( )、+
不包含:-
或:|
转义:一对英文引号("");
匹配开头:^
匹配结尾:$
例如:
选中所有名称中包含有“eMule”或“0.49c”字眼,但不包含有“exe”字眼的:emule|0.49c -exe
选中所有名称的开头是“eMule”,结尾是“0.49c”的:^emule 0.49c$
选中所有名称中带有“eMule 0.49c”的(必须是“eMule 0.49c”,中间没有别的字符,不能是“eMule fake 0.49c”),需要转义:"emule 0.49c"
大小选择器帮您根据文件大小选择文件。