当前位置: 首页 >> 欧美电影 >> 欲海潮[双语字幕].Poison.Ivy.1992.1080p.BluRay.x264.DTS.2.0-迅雷下载 10.84GB >> 正文

欲海潮[双语字幕].Poison.Ivy.1992.1080p.BluRay.x264.DTS.2.0-迅雷下载 10.84GB

2021年07月05日 11:11:45     电影发布:来源于网络     电影分类:欧美电影     评论(0)    

欲海潮[双语字幕].Poison.Ivy.1992.1080p.BluRay.x264.DTS.2.0 迅雷下载 10.84GB 惊悚片 剧情片 欧美电影  第1张

◎译 名 欲海潮/夜惊情

◎片 名 Poison Ivy

◎年 代 1992

◎产 地 美国

◎类 别 剧情 / 惊悚

◎语 言 英语

◎上映日期 1992-05-08(美国)

◎豆瓣评分 6.3/10 from 898 users

◎豆瓣链接 https://movie.douban.com/subject/1295125/

◎片 长 Argentina: 90 分钟

◎导 演 凯特·西亚 Katt Shea

◎编 剧 凯特·西亚 Katt Shea

◎主 演 德鲁·巴里摩尔 Drew Barrymore

莎拉·吉尔伯特 Sara Gilbert

汤姆·斯凯里特 Tom Skerritt

切瑞·拉德 Cheryl Ladd

Alan Stock Alan Stock

莱昂纳多·迪卡普里奥 Leonardo DiCaprio

泰姆·温特斯 Time Winters

玛丽·戈登·默里 Mary Gordon Murray

Warren Burton Warren Burton

珍妮·萨卡塔 Jeanne Sakata

◎标 签 美国 | 情色 | 美国电影 | DrewBarrymore | 情欲 | 剧情 | 惊悚 | 1992

◎简 介

大牌影星朱·巴瑞摩尔曾在著名科幻巨片《E.T.外星人》中饰演一位惹人喜爱的小女孩歌蒂,而在《欲海潮》一片中,观众所看到的巴瑞摩尔已不再是一个小女孩了,她已经成长为一名成熟性感的大艳女。

茜维是一个叛逆不平的富家女,在一个偶然的机会遇到了与自己个性迥然不同的艾薇,她热情开放的举止及特有的神秘色彩让茜维为之震撼,因好奇心驱使她一心想与她成为好友,因缘际会下,艾薇住进了茜维家,但从此灾难接踵而至,父亲被艾薇诱惑出轨,母亲离奇堕楼而亡……

  1. General

  2. Unique ID : 237375962431286383160600154202691145693 (0xB294F2899EBBF4773236D820F3BD0FDD)

  3. Complete name : Poison.Ivy.1992.1080p.BluRay.x264.DTS.2.0-PTH.mkv

  4. Format : Matroska

  5. Format version : Version 4

  6. File size : 10.8 GiB

  7. Duration : 1 h 34 min

  8. Overall bit rate : 16.5 Mb/s

  9. Movie name : Poison Ivy 1992

  10. Encoded date : UTC 2021-07-04 04:56:28

  11. Writing application : mkvmerge v58.0.0 ('Supper's Ready') 64-bit

  12. Writing library : libebml v1.4.2 + libmatroska v1.6.4

  13. Cover : Yes

  14. Attachments : cover.jpg


  15. Video

  16. ID : 1

  17. Format : AVC

  18. Format/Info : Advanced Video Codec

  19. Format profile : High@L4.1

  20. Format settings : CABAC / 4 Ref Frames

  21. Format settings, CABAC : Yes

  22. Format settings, Reference frames : 4 frames

  23. Codec ID : V_MPEG4/ISO/AVC

  24. Duration : 1 h 34 min

  25. Bit rate : 14.9 Mb/s

  26. Width : 1 920 pixels

  27. Height : 1 036 pixels

  28. Display aspect ratio : 1.85:1

  29. Frame rate mode : Constant

  30. Frame rate : 23.976 (24000/1001/53354) FPS

  31. Color space : YUV

  32. Chroma subsampling : 4:2:0

  33. Bit depth : 8 bits

  34. Scan type : Progressive

  35. Bits/(Pixel*Frame) : 0.313

  36. Stream size : 9.80 GiB (90%)

  37. Writing library : x264 core 163 r3059+79M f2a8266 t_mod_test_xavc [(8 & 10)-bit@all X86_64]

  38. Encoding settings : cabac=1 / ref=4 / deblock=1:-3:-3 / analyse=0x3:0x133 / me=umh / subme=11 / psy=1 / fade_compensate=0.00 / psy_rd=1.00:0.00 / mixed_ref=1 / me_range=48 / chroma_me=1 / trellis=2 / 8x8dct=1 / cqm=0 / deadzone=21,11 / fast_pskip=0 / chroma_qp_offset=-3 / threads=32 / lookahead_threads=8 / sliced_threads=0 / nr=0 / decimate=0 / interlaced=0 / NTMzNTQ= / bluray_compat=0 / constrained_intra=0 / fgo=0 / bframes=11 / b_pyramid=2 / b_adapt=2 / b_bias=0 / direct=3 / weightb=1 / open_gop=0 / weightp=2 / keyint=240 / keyint_min=1 / NTMzNTQ=uuDQuD2mJt9fsCf / scenecut=40 / intra_refresh=0 / rc_lookahead=72 / rc=crf / mbtree=0 / crf=18.5000 / qcomp=0.60 / qpmin=0:0:0 / qpmax=69:69:69 / qpstep=4 / vbv_maxrate=62500 / vbv_bufsize=78125 / crf_max=0.0 / nal_hrd=none / filler=0 / NTMzNTQ=LmsMAP37EqsCpk / ip_ratio=1.40 / pb_ratio=1.30 / aq=3:0.75 / aq-sensitivity=10.00 / aq-factor=1.00:1.00:1.00 / aq2=0 / aq3=0

  39. Language : English

  40. Default : Yes

  41. Forced : No


  42. Audio

  43. ID : 2

  44. ID in the original source medium : 4352 (0x1100)

  45. Format : DTS

  46. Format/Info : Digital Theater Systems

  47. Codec ID : A_DTS

  48. Duration : 1 h 34 min

  49. Bit rate mode : Constant

  50. Bit rate : 1 509 kb/s

  51. Channel(s) : 2 channels

  52. Channel layout : L R

  53. Sampling rate : 48.0 kHz

  54. Frame rate : 93.750 FPS (512 SPF)

  55. Bit depth : 24 bits

  56. Compression mode : Lossy

  57. Stream size : 1 016 MiB (9%)

  58. Language : English

  59. Default : Yes

  60. Forced : No

  61. Original source medium : Blu-ray


  62. Text #1

  63. ID : 3

  64. ID in the original source medium : 4609 (0x1201)

  65. Format : PGS

  66. Muxing mode : zlib

  67. Codec ID : S_HDMV/PGS

  68. Codec ID/Info : Picture based subtitle format used on BDs/HD-DVDs

  69. Duration : 1 h 29 min

  70. Bit rate : 31.6 kb/s

  71. Count of elements : 1732

  72. Stream size : 20.3 MiB (0%)

  73. Title : chs&eng

  74. Language : Chinese

  75. Default : Yes

  76. Forced : No

  77. Original source medium : Blu-ray


  78. Text #2

  79. ID : 4

  80. ID in the original source medium : 4610 (0x1202)

  81. Format : PGS

  82. Muxing mode : zlib

  83. Codec ID : S_HDMV/PGS

  84. Codec ID/Info : Picture based subtitle format used on BDs/HD-DVDs

  85. Duration : 1 h 29 min

  86. Bit rate : 31.8 kb/s

  87. Count of elements : 1732

  88. Stream size : 20.5 MiB (0%)

  89. Title : cht&eng

  90. Language : Chinese

  91. Default : Yes

  92. Forced : No

  93. Original source medium : Blu-ray


  94. Text #3

  95. ID : 5

  96. ID in the original source medium : 4611 (0x1203)

  97. Format : PGS

  98. Muxing mode : zlib

  99. Codec ID : S_HDMV/PGS

  100. Codec ID/Info : Picture based subtitle format used on BDs/HD-DVDs

  101. Duration : 1 h 29 min

  102. Bit rate : 16.7 kb/s

  103. Count of elements : 1655

  104. Stream size : 10.7 MiB (0%)

  105. Title : chs

  106. Language : Chinese

  107. Default : Yes

  108. Forced : No

  109. Original source medium : Blu-ray


  110. Text #4

  111. ID : 6

  112. ID in the original source medium : 4612 (0x1204)

  113. Format : PGS

  114. Muxing mode : zlib

  115. Codec ID : S_HDMV/PGS

  116. Codec ID/Info : Picture based subtitle format used on BDs/HD-DVDs

  117. Duration : 1 h 29 min

  118. Bit rate : 16.5 kb/s

  119. Count of elements : 1655

  120. Stream size : 10.6 MiB (0%)

  121. Title : cht

  122. Language : Chinese

  123. Default : Yes

  124. Forced : No

  125. Original source medium : Blu-ray


  126. Text #5

  127. ID : 7

  128. ID in the original source medium : 4608 (0x1200)

  129. Format : PGS

  130. Muxing mode : zlib

  131. Codec ID : S_HDMV/PGS

  132. Codec ID/Info : Picture based subtitle format used on BDs/HD-DVDs

  133. Duration : 1 h 29 min

  134. Bit rate : 45.3 kb/s

  135. Count of elements : 1798

  136. Stream size : 29.2 MiB (0%)

  137. Language : English

  138. Default : Yes

  139. Forced : No

  140. Original source medium : Blu-ray


  141. Menu

  142. 00:00:00.000 : Chapter 01

  143. 00:08:57.245 : Chapter 02

  144. 00:15:02.860 : Chapter 03

  145. 00:21:26.118 : Chapter 04

  146. 00:30:14.729 : Chapter 05

  147. 00:37:59.777 : Chapter 06

  148. 00:46:31.538 : Chapter 07

  149. 00:54:56.751 : Chapter 08

  150. 01:03:39.106 : Chapter 09

  151. 01:11:19.024 : Chapter 10

  152. 01:20:17.938 : Chapter 11

  153. 01:28:35.476 : Chapter 12


文件下载


除非特别注明,本文『欲海潮[双语字幕].Poison.Ivy.1992.1080p.BluRay.x264.DTS.2.0-迅雷下载 10.84GB』来源于互联网机器人自动抓取,非本站原创。 浮游电影网不对本文拥有版权,如有侵犯,请联系邮箱:fuyouu#yandex.com[#换成@]投诉。我们会在15个工作日内删除。 但烦请转载时请标明出处:“本文转载于『浮游电影网』,原文地址:https://www.fuyouu.com/12873.html

评论吧骚年!

发表你的见解   

昵称*

E-mail*(建议输入,以便收到博主回复的提示邮件)

验证码*

您可以使用eMule或eMule Mod(Windows)、aMule(Win、Linux、Mac)等软件下载eD2k链接。。
eMule收藏集(.emulecollection)文件是您选中的所有链接的列表文件。eMule可以直接下载它们。
按住SHIFT键选择可以选中多个选择框。
可用文件名和大小选择器来选择文件。
文件名选择器帮您根据文件名称或后缀来选择文件。不分大小写。
符号使用:
和:空格( )、+
不包含:-
或:|
转义:一对英文引号("");
匹配开头:^
匹配结尾:$
例如:
选中所有名称中包含有“eMule”或“0.49c”字眼,但不包含有“exe”字眼的:emule|0.49c -exe
选中所有名称的开头是“eMule”,结尾是“0.49c”的:^emule 0.49c$
选中所有名称中带有“eMule 0.49c”的(必须是“eMule 0.49c”,中间没有别的字符,不能是“eMule fake 0.49c”),需要转义:"emule 0.49c"
大小选择器帮您根据文件大小选择文件。