当前位置: 首页 >> 欧美电影 >> Mosonngoa[字幕].Мon.Аnge.2016.1080p.FriDay.WEB-DL.H264.AAC-xiaopie-迅雷下载 2.82GB >> 正文

Mosonngoa[字幕].Мon.Аnge.2016.1080p.FriDay.WEB-DL.H264.AAC-xiaopie-迅雷下载 2.82GB

2021年07月04日 15:10:28     电影发布:来源于网络     电影分类:欧美电影     评论(0)    

Mosonngoa[字幕].Мon.Аnge.2016.1080p.FriDay.WEB DL.H264.AAC xiaopie 迅雷下载 2.82GB 剧情片 欧美电影  第1张

◎译 名 Mosonngoa / Mosonngoa: The Mocked One

◎年 代 2014

◎产 地 德国 / 莱索托

◎上映日期 2014-05(戛纳电影节-短片角)

◎IMDb链接 https://www.imdb.com/title/tt3798720/

◎豆瓣链接 https://movie.douban.com/subject/30443722/

◎片 长 28分钟

◎简 介

Inasocietyriddledbypatriarchy,Mosonngoaembarksonanincisivepursuittosaveherfather'sfarm.Whenallherattemptsfail,sheentersastick-fightingcompetition-againstallodds.

  1. General

  2. Unique ID : 149238695664278036774554620241473019605 (0x704653C8E44061C1AB0E81C18B159ED5)

  3. Complete name : Мon.Аnge.2016.1080p.FriDay.WEB-DL.H264.AAC-xiaopie@CHDWEB.mkv

  4. Format : Matroska

  5. Format version : Version 4

  6. File size : 2.81 GiB

  7. Duration : 1 h 19 min

  8. Overall bit rate : 5 099 kb/s

  9. Encoded date : UTC 2021-06-22 12:26:00

  10. Writing application : mkvmerge v56.1.0 ('My Friend') 64-bit

  11. Writing library : libebml v1.4.2 + libmatroska v1.6.4


  12. Video

  13. ID : 1

  14. Format : AVC

  15. Format/Info : Advanced Video Codec

  16. Format profile : High@L4

  17. Format settings : 3 Ref Frames

  18. Format settings, CABAC : No

  19. Format settings, Reference frames : 3 frames

  20. Format settings, GOP : M=1, N=30

  21. Codec ID : V_MPEG4/ISO/AVC

  22. Duration : 1 h 18 min

  23. Bit rate : 4 971 kb/s

  24. Width : 1 920 pixels

  25. Height : 1 080 pixels

  26. Display aspect ratio : 16:9

  27. Frame rate mode : Constant

  28. Frame rate : 30.000 FPS

  29. Color space : YUV

  30. Chroma subsampling : 4:2:0

  31. Bit depth : 8 bits

  32. Scan type : Progressive

  33. Bits/(Pixel*Frame) : 0.080

  34. Stream size : 2.74 GiB (97%)

  35. Language : French

  36. Default : Yes

  37. Forced : No


  38. Audio

  39. ID : 2

  40. Format : AAC LC

  41. Format/Info : Advanced Audio Codec Low Complexity

  42. Codec ID : A_AAC-2

  43. Duration : 1 h 19 min

  44. Bit rate : 128 kb/s

  45. Channel(s) : 2 channels

  46. Channel layout : L R

  47. Sampling rate : 44.1 kHz

  48. Frame rate : 43.066 FPS (1024 SPF)

  49. Compression mode : Lossy

  50. Stream size : 72.3 MiB (3%)

  51. Language : French

  52. Default : Yes

  53. Forced : No



文件下载


除非特别注明,本文『Mosonngoa[字幕].Мon.Аnge.2016.1080p.FriDay.WEB-DL.H264.AAC-xiaopie-迅雷下载 2.82GB』来源于互联网机器人自动抓取,非本站原创。 浮游电影网不对本文拥有版权,如有侵犯,请联系邮箱:fuyouu#yandex.com[#换成@]投诉。我们会在15个工作日内删除。 但烦请转载时请标明出处:“本文转载于『浮游电影网』,原文地址:https://www.fuyouu.com/12864.html

评论吧骚年!

发表你的见解   

昵称*

E-mail*(建议输入,以便收到博主回复的提示邮件)

验证码*

您可以使用eMule或eMule Mod(Windows)、aMule(Win、Linux、Mac)等软件下载eD2k链接。。
eMule收藏集(.emulecollection)文件是您选中的所有链接的列表文件。eMule可以直接下载它们。
按住SHIFT键选择可以选中多个选择框。
可用文件名和大小选择器来选择文件。
文件名选择器帮您根据文件名称或后缀来选择文件。不分大小写。
符号使用:
和:空格( )、+
不包含:-
或:|
转义:一对英文引号("");
匹配开头:^
匹配结尾:$
例如:
选中所有名称中包含有“eMule”或“0.49c”字眼,但不包含有“exe”字眼的:emule|0.49c -exe
选中所有名称的开头是“eMule”,结尾是“0.49c”的:^emule 0.49c$
选中所有名称中带有“eMule 0.49c”的(必须是“eMule 0.49c”,中间没有别的字符,不能是“eMule fake 0.49c”),需要转义:"emule 0.49c"
大小选择器帮您根据文件大小选择文件。