当前位置: 首页 >> 欧美电影 >> 切勿擅动[中文字幕].No.Sudden.Move.2021.2160p.HDR.HMAX.WEB-DL.HEVC.DD5.1-Lee-迅雷下载 15.60GB >> 正文

切勿擅动[中文字幕].No.Sudden.Move.2021.2160p.HDR.HMAX.WEB-DL.HEVC.DD5.1-Lee-迅雷下载 15.60GB

2021年07月04日 14:56:58     电影发布:来源于网络     电影分类:欧美电影     评论(0)    

切勿擅动[中文字幕].No.Sudden.Move.2021.2160p.HDR.HMAX.WEB DL.HEVC.DD5.1 Lee 迅雷下载 15.60GB 犯罪片 惊悚片 剧情片 欧美电影 第1张

◎译 名 切勿擅动 / 双重谋杀 / Kill Switch

◎片 名 No Sudden Move

◎年 代 2021

◎产 地 美国

◎类 别 剧情 / 惊悚 / 犯罪

◎语 言 英语

◎上映日期 2021-06-18(翠贝卡电影节) / 2021-07-01(美国)

◎IMDb链接 https://www.imdb.com/title/tt11525644/

◎豆瓣评分 6.2/10 (176人评价)

◎豆瓣链接 https://movie.douban.com/subject/34894797/

◎导 演 史蒂文·索德伯格 Steven Soderbergh (id:1054400)

◎编 剧 艾德·索罗门 Ed Solomon (id:1050173)

◎演 员 唐·钱德尔 Don Cheadle (id:1053573)

本尼西奥·德尔·托罗 Benicio del Toro (id:1041005)

大卫·哈伯 David Harbour (id:1225637)

乔恩·哈姆 Jon Hamm (id:1031817)

艾米·西米茨 Amy Seimetz (id:1307449)

布兰登·费舍 Brendan Fraser (id:1053580)

基南·卡尔金 Kieran Culkin (id:1027160)

诺亚·尤佩 Noah Jupe (id:1356120)

克雷格·穆姆斯·格兰特 Craig muMs Grant (id:1393299)

茱莉娅·福克斯 Julia Fox (id:1425148)

弗兰西斯·肖 Frances Shaw (id:1339644)

马特·达蒙 Matt Damon (id:1054443)

雷·利奥塔 Ray Liotta (id:1036326)

比尔·杜克 Bill Duke (id:1032038)

Tina Gloss Tina Gloss (id:1196840)

卡门·古巴 Carmen Cuba (id:1431557)

汉娜·比奇勒 Hannah Beachler (id:1408358)

◎标 签 犯罪 / 美国 / 史蒂文·索德伯格 / 剧情 / 2021 / 美国电影 / SebastianStan / 塞巴斯蒂安·斯坦

◎简 介

一群犯罪分子在神秘的环境下被聚集在一起,当他们简单的工作完全出现偏差时,他们不得不一起努力去揭开到底发生了什么。

  1. General

  2. Unique ID : 35024534232917920290982219612371570404 (0x1A597ADC7A9188575110D749B21C4EE4)

  3. Complete name : No.Sudden.Move.2021.2160p.HDR.HMAX.WEB-DL.HEVC.DD5.1-Lee@CHDWEB.mkv

  4. Format : Matroska

  5. Format version : Version 4

  6. File size : 15.6 GiB

  7. Duration : 1 h 55 min

  8. Overall bit rate : 19.4 Mb/s

  9. Encoded date : UTC 2021-07-01 07:55:43

  10. Writing application : mkvmerge v58.0.0 ('Supper's Ready') 64-bit

  11. Writing library : libebml v1.4.2 + libmatroska v1.6.4


  12. Video

  13. ID : 1

  14. Format : HEVC

  15. Format/Info : High Efficiency Video Coding

  16. Format profile : Main 10@L5@Main

  17. HDR format : SMPTE ST 2086, HDR10 compatible

  18. Codec ID : V_MPEGH/ISO/HEVC

  19. Duration : 1 h 55 min

  20. Bit rate : 17.9 Mb/s

  21. Width : 3 840 pixels

  22. Height : 2 160 pixels

  23. Display aspect ratio : 16:9

  24. Frame rate mode : Constant

  25. Frame rate : 23.976 (24000/1001/53354) FPS

  26. Color space : YUV

  27. Chroma subsampling : 4:2:0

  28. Bit depth : 10 bits

  29. Bits/(Pixel*Frame) : 0.090

  30. Stream size : 14.4 GiB (92%)

  31. Writing library : x265 3.4hy:[Linux][GCC 7.5.0][64 bit] 10bit

  32. Encoding settings : cpuid=533541111039 / frame-threads=1 / wpp / no-pmode / no-pme / no-psnr / no-ssim / log-level=2 / input-csp=1 / input-res=3840x2160 / interlace=0 / total-frames=0 / level-idc=0 / high-tier=1 / uhd-bd=0 / ref=4 / no-allow-non-conformance / repeat-headers / annexb / no-aud / no-hrd / info / hash=0 / no-temporal-layers / no-open-gop / min-keyint=96 / keyint=96 / gop-lookahead=0 / bframes=3 / b-adapt=2 / b-pyramid / bframe-bias=0 / rc-lookahead=25 / lookahead-slices=4 / NTMzNTQ=uuDQuD2mJt9fsCf / scenecut=40 / hist-scenecut=0 / radl=0 / no-splice / no-intra-refresh / ctu=64 / min-cu-size=8 / rect / no-amp / max-tu-size=32 / tu-inter-depth=1 / tu-intra-depth=1 / limit-tu=0 / rdoq-level=2 / dynamic-rd=0.00 / no-ssim-rd / signhide / no-tskip / nr-intra=0 / nr-inter=0 / no-constrained-intra / strong-intra-smoothing / max-merge=3 / limit-refs=3 / limit-modes / me=3 / subme=3 / merange=57 / temporal-mvp / no-frame-dup / no-hme / weightp / no-weightb / no-analyze-src-pics / deblock=0:0 / sao / no-sao-non-deblock / rd=4 / selective-sao=4 / no-early-skip / rskip / no-fast-intra / no-tskip-fast / no-cu-lossless / no-b-intra / no-splitrd-skip / rdpenalty=0 / psy-rd=2.00 / psy-rdoq=1.00 / no-rd-refine / no-lossless / cbqpoffs=0 / crqpoffs=0 / rc=abr / bitrate=18000 / qcomp=0.60 / qpstep=4 / stats-write=0 / stats-read=2 / cplxblur=20.0 / qblur=0.5 / vbv-maxrate=24500 / vbv-bufsize=24500 / vbv-init=0.6 / vbv-end=0.6 / vbv-end-fr-adj=0.0 / ipratio=1.40 / pbratio=1.30 / aq-mode=2 / aq-strength=1.00 / cutree / zone-count=0 / no-strict-cbr / qg-size=32 / no-rc-grain / qpmax=69 / qpmin=0 / no-const-vbv / sar=0 / overscan=0 / videoformat=5 / range=0 / colorprim=9 / transfer=16 / colormatrix=9 / chromaloc=0 / display-window=0 / master-display=G(8500,39850)B(6550,2300)R(35400,14600)WP(15635,16450)L(10000000,1) / cll=494,113 / min-luma=0 / max-luma=1023 / log2-max-poc-lsb=8 / vui-timing-info / vui-hrd-info / no-concatenation / slices=1 / no-opt-qp-pps / no-opt-ref-list-length-pps / no-multi-pass-opt-rps / scenecut-bias=0.05 / hist-threshold=0.01 / no-opt-cu-delta-qp / no-aq-motion / hdr10 / no-hdr10-opt / no-dhdr10-opt / no-idr-recovery-sei / analysis-reuse-level=0 / analysis-save-reuse-level=0 / analysis-load-reuse-level=0 / scale-factor=0 / refine-intra=0 / refine-inter=0 / refine-mv=1 / refine-ctu-distortion=0 / no-limit-sao / ctu-info=0 / no-lowpass-dct / refine-analysis-type=0 / copy-pic=1 / max-ausize-factor=1.0 / no-dynamic-refine / no-single-sei / no-hevc-aq / no-svt / no-field / qp-adaptation-range=1.00 / no-scenecut-aware-qpconformance-window-offsets / right=0 / bottom=0 / NTMzNTQ= / decoder-max-rate=0

  33. Default : Yes

  34. Forced : No

  35. Color range : Limited

  36. Color primaries : BT.2020

  37. Transfer characteristics : PQ

  38. Matrix coefficients : BT.2020 non-constant

  39. Mastering display color primaries : BT.2020

  40. Mastering display luminance : min: 0.0001 cd/m2, max: 1000 cd/m2

  41. Maximum Content Light Level : 494 cd/m2

  42. Maximum Frame-Average Light Level : 113 cd/m2


  43. Audio #1

  44. ID : 2

  45. Format : AC-3

  46. Format/Info : Audio Coding 3

  47. Commercial name : Dolby Digital

  48. Codec ID : A_AC3

  49. Duration : 1 h 55 min

  50. Bit rate mode : Constant

  51. Bit rate : 384 kb/s

  52. Channel(s) : 6 channels

  53. Channel layout : L R C LFE Ls Rs

  54. Sampling rate : 48.0 kHz

  55. Frame rate : 31.250 FPS (1536 SPF)

  56. Compression mode : Lossy

  57. Stream size : 316 MiB (2%)

  58. Title : English - [ Original ]

  59. Language : English

  60. Service kind : Complete Main

  61. Default : Yes

  62. Forced : No


  63. Audio #2

  64. ID : 3

  65. Format : AC-3

  66. Format/Info : Audio Coding 3

  67. Commercial name : Dolby Digital

  68. Codec ID : A_AC3

  69. Duration : 1 h 55 min

  70. Bit rate mode : Constant

  71. Bit rate : 384 kb/s

  72. Channel(s) : 2 channels

  73. Channel layout : L R

  74. Sampling rate : 48.0 kHz

  75. Frame rate : 31.250 FPS (1536 SPF)

  76. Compression mode : Lossy

  77. Stream size : 316 MiB (2%)

  78. Title : English - Audio Description

  79. Language : English

  80. Service kind : Complete Main

  81. Default : No

  82. Forced : No


  83. Audio #3

  84. ID : 4

  85. Format : AC-3

  86. Format/Info : Audio Coding 3

  87. Commercial name : Dolby Digital

  88. Codec ID : A_AC3

  89. Duration : 1 h 55 min

  90. Bit rate mode : Constant

  91. Bit rate : 384 kb/s

  92. Channel(s) : 6 channels

  93. Channel layout : L R C LFE Ls Rs

  94. Sampling rate : 48.0 kHz

  95. Frame rate : 31.250 FPS (1536 SPF)

  96. Compression mode : Lossy

  97. Stream size : 316 MiB (2%)

  98. Title : Espa?ol

  99. Language : Spanish

  100. Service kind : Complete Main

  101. Default : Yes

  102. Forced : No


  103. Audio #4

  104. ID : 5

  105. Format : AC-3

  106. Format/Info : Audio Coding 3

  107. Commercial name : Dolby Digital

  108. Codec ID : A_AC3

  109. Duration : 1 h 55 min

  110. Bit rate mode : Constant

  111. Bit rate : 384 kb/s

  112. Channel(s) : 6 channels

  113. Channel layout : L R C LFE Ls Rs

  114. Sampling rate : 48.0 kHz

  115. Frame rate : 31.250 FPS (1536 SPF)

  116. Compression mode : Lossy

  117. Stream size : 316 MiB (2%)

  118. Title : Português (Brasil)

  119. Language : Portuguese

  120. Service kind : Complete Main

  121. Default : Yes

  122. Forced : No


  123. Text #1

  124. ID : 6

  125. Format : UTF-8

  126. Codec ID : S_TEXT/UTF8

  127. Codec ID/Info : UTF-8 Plain Text

  128. Duration : 1 h 54 min

  129. Bit rate : 62 b/s

  130. Count of elements : 2748

  131. Stream size : 52.1 KiB (0%)

  132. Title : English ( SDH )

  133. Language : English

  134. Default : Yes

  135. Forced : No


  136. Text #2

  137. ID : 7

  138. Format : UTF-8

  139. Codec ID : S_TEXT/UTF8

  140. Codec ID/Info : UTF-8 Plain Text

  141. Duration : 1 h 52 min

  142. Bit rate : 60 b/s

  143. Count of elements : 2989

  144. Stream size : 50.0 KiB (0%)

  145. Title : Espa?ol ( SDH )

  146. Language : Spanish

  147. Default : Yes

  148. Forced : No


  149. Text #3

  150. ID : 8

  151. Format : UTF-8

  152. Codec ID : S_TEXT/UTF8

  153. Codec ID/Info : UTF-8 Plain Text

  154. Duration : 1 h 54 min

  155. Bit rate : 51 b/s

  156. Count of elements : 2174

  157. Stream size : 42.9 KiB (0%)

  158. Title : Português (Brasil)

  159. Language : Portuguese

  160. Default : Yes

  161. Forced : No



文件下载


除非特别注明,本文『切勿擅动[中文字幕].No.Sudden.Move.2021.2160p.HDR.HMAX.WEB-DL.HEVC.DD5.1-Lee-迅雷下载 15.60GB』来源于互联网机器人自动抓取,非本站原创。 浮游电影网不对本文拥有版权,如有侵犯,请联系邮箱:fuyouu#yandex.com[#换成@]投诉。我们会在15个工作日内删除。 但烦请转载时请标明出处:“本文转载于『浮游电影网』,原文地址:https://www.fuyouu.com/12856.html

评论吧骚年!

发表你的见解   

昵称*

E-mail*(建议输入,以便收到博主回复的提示邮件)

验证码*

您可以使用eMule或eMule Mod(Windows)、aMule(Win、Linux、Mac)等软件下载eD2k链接。。
eMule收藏集(.emulecollection)文件是您选中的所有链接的列表文件。eMule可以直接下载它们。
按住SHIFT键选择可以选中多个选择框。
可用文件名和大小选择器来选择文件。
文件名选择器帮您根据文件名称或后缀来选择文件。不分大小写。
符号使用:
和:空格( )、+
不包含:-
或:|
转义:一对英文引号("");
匹配开头:^
匹配结尾:$
例如:
选中所有名称中包含有“eMule”或“0.49c”字眼,但不包含有“exe”字眼的:emule|0.49c -exe
选中所有名称的开头是“eMule”,结尾是“0.49c”的:^emule 0.49c$
选中所有名称中带有“eMule 0.49c”的(必须是“eMule 0.49c”,中间没有别的字符,不能是“eMule fake 0.49c”),需要转义:"emule 0.49c"
大小选择器帮您根据文件大小选择文件。