当前位置: 首页 >> 欧美电影 >> 明日之战[简繁字幕].The.Tomorrow.War.2021.2160p.HDR.AMZN.WEB-DL.DDP5.1.HEVC-Lee-迅雷下载 24.10GB >> 正文

明日之战[简繁字幕].The.Tomorrow.War.2021.2160p.HDR.AMZN.WEB-DL.DDP5.1.HEVC-Lee-迅雷下载 24.10GB

2021年07月04日 14:50:33     电影发布:来源于网络     电影分类:欧美电影     评论(1)    

明日之战[简繁字幕].The.Tomorrow.War.2021.2160p.HDR.AMZN.WEB DL.DDP5.1.HEVC Lee 迅雷下载 24.10GB 科幻片 动作片 欧美电影  第1张

◎译 名 明日之战 / 幽灵征募 / 幽灵分遣队 / Ghost Draft

◎片 名 The Tomorrow War

◎年 代 2021

◎产 地 美国

◎类 别 动作 / 科幻

◎语 言 英语

◎上映日期 2021-07-02(美国网络)

◎IMDb链接 https://www.imdb.com/title/tt9777666/

◎豆瓣评分 6.5/10 (1152人评价)

◎豆瓣链接 https://movie.douban.com/subject/30459571/

◎导 演 克里斯·麦凯 Chris McKay (id:1276297)

◎编 剧 扎克·迪恩 Zach Dean (id:1332527)

◎演 员 克里斯·帕拉特 Chris Pratt (id:1017967)

伊冯娜·斯特拉霍夫斯基 Yvonne Strahovski (id:1022574)

J·K·西蒙斯 J.K. Simmons (id:1147911)

艾德文·霍德吉 Edwin Hodge (id:1004934)

山姆·理查森 Sam Richardson (id:1345536)

贝蒂·吉尔平 Betty Gilpin (id:1349104)

贾思敏·马修斯 Jasmine Mathews (id:1389210)

玛丽·莱恩·莱杰斯库 Mary Lynn Rajskub (id:1009274)

赖恩·基拉·阿姆斯特朗 Ryan Kiera Armstrong (id:1421167)

凯斯·鲍尔斯 Keith Powers (id:1344653)

赛切儿·加布埃尔 Seychelle Gabriel (id:1275055)

菲丽莎·特雷尔 Felisha Terrell (id:1264136)

梅利莎·圣阿曼德 Melissa Saint-Amand (id:1429684)

加里·维克斯 Gary Weeks (id:1019215)

大卫·马尔登那多 David Maldonado (id:1382868)

马修·康威尔 Matthew Cornwell (id:1385584)

埃里克·格里斯 Eric Graise (id:1443024)

罗伯特·廷斯利 Robert Tinsley (id:1402482)

安德里娅·安德拉德 Andrea Andrade (id:1440532)

帕特里克·马龙 Patrick Malone (id:1115094)

施奎塔·詹姆斯 Shiquita James (id:1423082)

吉姆·帕尔默 Jim Palmer (id:1293854)

雷德·戴利 Rad Daly (id:1070149)

亚历克西斯·拉奥特 Alexis Louder (id:1454757)

梅根·劳利斯 Megan Lawless (id:1375137)

克拉克·萨鲁洛 Clark Sarullo (id:1429966)

肯尼斯·以色列 Kenneth Israel (id:1405785)

小佩里·祖鲁 Perry Zulu Jr. (id:1395029)

肖恩·雷卡特尔 Shawn Ray Cartel (id:1443043)

Rodney L. James Rodney L. James (id:1103396)

洛内·巴尔菲 Lorne Balfe (id:1032847)

拉瑞·方 Larry Fong (id:1334259)

◎标 签 科幻 / 美国 / 克里斯·帕拉特 / 2021 / 动作 / 外星人 / 战争 / J·K·西蒙斯

◎简 介

克里斯·帕拉特商谈主演科幻影片[幽灵征募](GhostDraft,暂译),克里斯·麦凯([乐高大电影])执导,扎克·迪恩([陷阱])操刀剧本。故事讲述一对父子被征募到一场未来战争中,这场战争决定着人类的命运。天空之舞(Skydance)出资制作。

  1. General

  2. Unique ID : 63463504435272191041802421068715726360 (0x2FBEA058EABA3D5AFC20844A197B1618)

  3. Complete name : The.Tomorrow.War.2021.2160p.HDR.AMZN.WEB-DL.DDP5.1.HEVC-Lee@CHDWEB.mkv

  4. Format : Matroska

  5. Format version : Version 4

  6. File size : 24.1 GiB

  7. Duration : 2 h 18 min

  8. Overall bit rate : 25.0 Mb/s

  9. Encoded date : UTC 2021-07-02 07:16:09

  10. Writing application : mkvmerge v58.0.0 ('Supper's Ready') 64-bit

  11. Writing library : libebml v1.4.2 + libmatroska v1.6.4


  12. Video

  13. ID : 1

  14. Format : HEVC

  15. Format/Info : High Efficiency Video Coding

  16. Format profile : Main 10@L5@Main

  17. HDR format : SMPTE ST 2094 App 4, Version 1, HDR10+ Profile B compatible

  18. Codec ID : V_MPEGH/ISO/HEVC

  19. Duration : 2 h 18 min

  20. Bit rate : 14.7 Mb/s

  21. Width : 3 840 pixels

  22. Height : 1 600 pixels

  23. Display aspect ratio : 2.40:1

  24. Frame rate mode : Constant

  25. Frame rate : 23.976 (24000/1001/53354) FPS

  26. Color space : YUV

  27. Chroma subsampling : 4:2:0

  28. Bit depth : 10 bits

  29. Bits/(Pixel*Frame) : 0.100

  30. Stream size : 14.2 GiB (59%)

  31. Default : Yes

  32. Forced : No

  33. Color range : Limited

  34. Color primaries : BT.2020

  35. Transfer characteristics : PQ

  36. Matrix coefficients : BT.2020 non-constant

  37. Mastering display color primaries : Display P3

  38. Mastering display luminance : min: 0.0001 cd/m2, max: 1000 cd/m2

  39. Maximum Content Light Level : 956 cd/m2

  40. Maximum Frame-Average Light Level : 570 cd/m2


  41. Audio #1

  42. ID : 2

  43. Format : E-AC-3

  44. Format/Info : Enhanced AC-3

  45. Commercial name : Dolby Digital Plus

  46. Codec ID : A_EAC3

  47. Duration : 2 h 18 min

  48. Bit rate mode : Constant

  49. Bit rate : 640 kb/s

  50. Channel(s) : 6 channels

  51. Channel layout : L R C LFE Ls Rs

  52. Sampling rate : 48.0 kHz

  53. Frame rate : 31.250 FPS (1536 SPF)

  54. Compression mode : Lossy

  55. Stream size : 632 MiB (3%)

  56. Title : English - [ Original ]

  57. Language : English

  58. Service kind : Complete Main

  59. Default : Yes

  60. Forced : No


  61. Audio #2

  62. ID : 3

  63. Format : E-AC-3

  64. Format/Info : Enhanced AC-3

  65. Commercial name : Dolby Digital Plus

  66. Codec ID : A_EAC3

  67. Duration : 2 h 18 min

  68. Bit rate mode : Constant

  69. Bit rate : 640 kb/s

  70. Channel(s) : 6 channels

  71. Channel layout : L R C LFE Ls Rs

  72. Sampling rate : 48.0 kHz

  73. Frame rate : 31.250 FPS (1536 SPF)

  74. Compression mode : Lossy

  75. Stream size : 632 MiB (3%)

  76. Title : English [Audio Description]

  77. Language : English

  78. Service kind : Complete Main

  79. Default : Yes

  80. Forced : Yes


  81. Audio #3

  82. ID : 4

  83. Format : E-AC-3

  84. Format/Info : Enhanced AC-3

  85. Commercial name : Dolby Digital Plus

  86. Codec ID : A_EAC3

  87. Duration : 2 h 18 min

  88. Bit rate mode : Constant

  89. Bit rate : 640 kb/s

  90. Channel(s) : 6 channels

  91. Channel layout : L R C LFE Ls Rs

  92. Sampling rate : 48.0 kHz

  93. Frame rate : 31.250 FPS (1536 SPF)

  94. Compression mode : Lossy

  95. Stream size : 632 MiB (3%)

  96. Title : Portuguese ( Brazilian )

  97. Language : Portuguese

  98. Service kind : Complete Main

  99. Default : Yes

  100. Forced : No


  101. Audio #4

  102. ID : 5

  103. Format : E-AC-3

  104. Format/Info : Enhanced AC-3

  105. Commercial name : Dolby Digital Plus

  106. Codec ID : A_EAC3

  107. Duration : 2 h 18 min

  108. Bit rate mode : Constant

  109. Bit rate : 640 kb/s

  110. Channel(s) : 6 channels

  111. Channel layout : L R C LFE Ls Rs

  112. Sampling rate : 48.0 kHz

  113. Frame rate : 31.250 FPS (1536 SPF)

  114. Compression mode : Lossy

  115. Stream size : 632 MiB (3%)

  116. Title : Espa?ol (Latinoamérica)

  117. Language : Spanish

  118. Service kind : Complete Main

  119. Default : Yes

  120. Forced : No


  121. Audio #5

  122. ID : 6

  123. Format : E-AC-3

  124. Format/Info : Enhanced AC-3

  125. Commercial name : Dolby Digital Plus

  126. Codec ID : A_EAC3

  127. Duration : 2 h 18 min

  128. Bit rate mode : Constant

  129. Bit rate : 640 kb/s

  130. Channel(s) : 6 channels

  131. Channel layout : L R C LFE Ls Rs

  132. Sampling rate : 48.0 kHz

  133. Frame rate : 31.250 FPS (1536 SPF)

  134. Compression mode : Lossy

  135. Stream size : 632 MiB (3%)

  136. Title : Espa?ol (Espa?a)

  137. Language : Spanish

  138. Service kind : Complete Main

  139. Default : Yes

  140. Forced : No


  141. Audio #6

  142. ID : 7

  143. Format : E-AC-3

  144. Format/Info : Enhanced AC-3

  145. Commercial name : Dolby Digital Plus

  146. Codec ID : A_EAC3

  147. Duration : 2 h 18 min

  148. Bit rate mode : Constant

  149. Bit rate : 640 kb/s

  150. Channel(s) : 6 channels

  151. Channel layout : L R C LFE Ls Rs

  152. Sampling rate : 48.0 kHz

  153. Frame rate : 31.250 FPS (1536 SPF)

  154. Compression mode : Lossy

  155. Stream size : 632 MiB (3%)

  156. Title : Deutsch

  157. Language : German

  158. Service kind : Complete Main

  159. Default : Yes

  160. Forced : No


  161. Audio #7

  162. ID : 8

  163. Format : E-AC-3

  164. Format/Info : Enhanced AC-3

  165. Commercial name : Dolby Digital Plus

  166. Codec ID : A_EAC3

  167. Duration : 2 h 18 min

  168. Bit rate mode : Constant

  169. Bit rate : 640 kb/s

  170. Channel(s) : 6 channels

  171. Channel layout : L R C LFE Ls Rs

  172. Sampling rate : 48.0 kHz

  173. Frame rate : 31.250 FPS (1536 SPF)

  174. Compression mode : Lossy

  175. Stream size : 632 MiB (3%)

  176. Title : Fran?ais (France)

  177. Language : French

  178. Service kind : Complete Main

  179. Default : Yes

  180. Forced : No


  181. Audio #8

  182. ID : 9

  183. Format : E-AC-3

  184. Format/Info : Enhanced AC-3

  185. Commercial name : Dolby Digital Plus

  186. Codec ID : A_EAC3

  187. Duration : 2 h 18 min

  188. Bit rate mode : Constant

  189. Bit rate : 640 kb/s

  190. Channel(s) : 6 channels

  191. Channel layout : L R C LFE Ls Rs

  192. Sampling rate : 48.0 kHz

  193. Frame rate : 31.250 FPS (1536 SPF)

  194. Compression mode : Lossy

  195. Stream size : 632 MiB (3%)

  196. Title : Fran?ais (Canada)

  197. Language : French

  198. Service kind : Complete Main

  199. Default : Yes

  200. Forced : No


  201. Audio #9

  202. ID : 10

  203. Format : E-AC-3

  204. Format/Info : Enhanced AC-3

  205. Commercial name : Dolby Digital Plus

  206. Codec ID : A_EAC3

  207. Duration : 2 h 18 min

  208. Bit rate mode : Constant

  209. Bit rate : 640 kb/s

  210. Channel(s) : 6 channels

  211. Channel layout : L R C LFE Ls Rs

  212. Sampling rate : 48.0 kHz

  213. Frame rate : 31.250 FPS (1536 SPF)

  214. Compression mode : Lossy

  215. Stream size : 632 MiB (3%)

  216. Title : 日本

  217. Language : Japanese

  218. Service kind : Complete Main

  219. Default : Yes

  220. Forced : No


  221. Audio #10

  222. ID : 11

  223. Format : E-AC-3

  224. Format/Info : Enhanced AC-3

  225. Commercial name : Dolby Digital Plus

  226. Codec ID : A_EAC3

  227. Duration : 2 h 18 min

  228. Bit rate mode : Constant

  229. Bit rate : 640 kb/s

  230. Channel(s) : 6 channels

  231. Channel layout : L R C LFE Ls Rs

  232. Sampling rate : 48.0 kHz

  233. Frame rate : 31.250 FPS (1536 SPF)

  234. Compression mode : Lossy

  235. Stream size : 632 MiB (3%)

  236. Title : ??????

  237. Language : Telugu

  238. Service kind : Complete Main

  239. Default : Yes

  240. Forced : No


  241. Audio #11

  242. ID : 12

  243. Format : E-AC-3

  244. Format/Info : Enhanced AC-3

  245. Commercial name : Dolby Digital Plus

  246. Codec ID : A_EAC3

  247. Duration : 2 h 18 min

  248. Bit rate mode : Constant

  249. Bit rate : 640 kb/s

  250. Channel(s) : 6 channels

  251. Channel layout : L R C LFE Ls Rs

  252. Sampling rate : 48.0 kHz

  253. Frame rate : 31.250 FPS (1536 SPF)

  254. Compression mode : Lossy

  255. Stream size : 632 MiB (3%)

  256. Title : ?e?tina

  257. Language : Czech

  258. Service kind : Complete Main

  259. Default : Yes

  260. Forced : No


  261. Audio #12

  262. ID : 13

  263. Format : E-AC-3

  264. Format/Info : Enhanced AC-3

  265. Commercial name : Dolby Digital Plus

  266. Codec ID : A_EAC3

  267. Duration : 2 h 18 min

  268. Bit rate mode : Constant

  269. Bit rate : 640 kb/s

  270. Channel(s) : 6 channels

  271. Channel layout : L R C LFE Ls Rs

  272. Sampling rate : 48.0 kHz

  273. Frame rate : 31.250 FPS (1536 SPF)

  274. Compression mode : Lossy

  275. Stream size : 632 MiB (3%)

  276. Title : Italiano

  277. Language : Italian

  278. Service kind : Complete Main

  279. Default : Yes

  280. Forced : No


  281. Audio #13

  282. ID : 14

  283. Format : E-AC-3

  284. Format/Info : Enhanced AC-3

  285. Commercial name : Dolby Digital Plus

  286. Codec ID : A_EAC3

  287. Duration : 2 h 18 min

  288. Bit rate mode : Constant

  289. Bit rate : 640 kb/s

  290. Channel(s) : 6 channels

  291. Channel layout : L R C LFE Ls Rs

  292. Sampling rate : 48.0 kHz

  293. Frame rate : 31.250 FPS (1536 SPF)

  294. Compression mode : Lossy

  295. Stream size : 632 MiB (3%)

  296. Title : ??????

  297. Language : Hindi

  298. Service kind : Complete Main

  299. Default : Yes

  300. Forced : No


  301. Audio #14

  302. ID : 15

  303. Format : E-AC-3

  304. Format/Info : Enhanced AC-3

  305. Commercial name : Dolby Digital Plus

  306. Codec ID : A_EAC3

  307. Duration : 2 h 18 min

  308. Bit rate mode : Constant

  309. Bit rate : 640 kb/s

  310. Channel(s) : 6 channels

  311. Channel layout : L R C LFE Ls Rs

  312. Sampling rate : 48.0 kHz

  313. Frame rate : 31.250 FPS (1536 SPF)

  314. Compression mode : Lossy

  315. Stream size : 632 MiB (3%)

  316. Title : ?????

  317. Language : Tamil

  318. Service kind : Complete Main

  319. Default : Yes

  320. Forced : No


  321. Audio #15

  322. ID : 16

  323. Format : E-AC-3

  324. Format/Info : Enhanced AC-3

  325. Commercial name : Dolby Digital Plus

  326. Codec ID : A_EAC3

  327. Duration : 2 h 18 min

  328. Bit rate mode : Constant

  329. Bit rate : 640 kb/s

  330. Channel(s) : 6 channels

  331. Channel layout : L R C LFE Ls Rs

  332. Sampling rate : 48.0 kHz

  333. Frame rate : 31.250 FPS (1536 SPF)

  334. Compression mode : Lossy

  335. Stream size : 632 MiB (3%)

  336. Title : Magyar

  337. Language : Hungarian

  338. Service kind : Complete Main

  339. Default : Yes

  340. Forced : No


  341. Audio #16

  342. ID : 17

  343. Format : E-AC-3

  344. Format/Info : Enhanced AC-3

  345. Commercial name : Dolby Digital Plus

  346. Codec ID : A_EAC3

  347. Duration : 2 h 18 min

  348. Bit rate mode : Constant

  349. Bit rate : 640 kb/s

  350. Channel(s) : 6 channels

  351. Channel layout : L R C LFE Ls Rs

  352. Sampling rate : 48.0 kHz

  353. Frame rate : 31.250 FPS (1536 SPF)

  354. Compression mode : Lossy

  355. Stream size : 632 MiB (3%)

  356. Title : Polski

  357. Language : Polish

  358. Service kind : Complete Main

  359. Default : Yes

  360. Forced : No


  361. Text #1

  362. ID : 18

  363. Format : UTF-8

  364. Codec ID : S_TEXT/UTF8

  365. Codec ID/Info : UTF-8 Plain Text

  366. Duration : 2 h 16 min

  367. Bit rate : 47 b/s

  368. Count of elements : 1483

  369. Stream size : 47.0 KiB (0%)

  370. Title : 中文(简体)

  371. Language : Chinese

  372. Default : Yes

  373. Forced : No


  374. Text #2

  375. ID : 19

  376. Format : UTF-8

  377. Codec ID : S_TEXT/UTF8

  378. Codec ID/Info : UTF-8 Plain Text

  379. Duration : 2 h 16 min

  380. Bit rate : 43 b/s

  381. Count of elements : 1483

  382. Stream size : 43.6 KiB (0%)

  383. Title : 中文(繁體)

  384. Language : Chinese

  385. Default : Yes

  386. Forced : No


  387. Text #3

  388. ID : 20

  389. Format : UTF-8

  390. Codec ID : S_TEXT/UTF8

  391. Codec ID/Info : UTF-8 Plain Text

  392. Duration : 2 h 16 min

  393. Bit rate : 79 b/s

  394. Count of elements : 1481

  395. Stream size : 79.2 KiB (0%)

  396. Title : ???????

  397. Language : Arabic

  398. Default : Yes

  399. Forced : No


  400. Text #4

  401. ID : 21

  402. Format : UTF-8

  403. Codec ID : S_TEXT/UTF8

  404. Codec ID/Info : UTF-8 Plain Text

  405. Duration : 2 h 16 min

  406. Bit rate : 48 b/s

  407. Count of elements : 1484

  408. Stream size : 48.8 KiB (0%)

  409. Title : ?e?tina

  410. Language : Czech

  411. Default : Yes

  412. Forced : No


  413. Text #5

  414. ID : 22

  415. Format : UTF-8

  416. Codec ID : S_TEXT/UTF8

  417. Codec ID/Info : UTF-8 Plain Text

  418. Duration : 2 h 16 min

  419. Bit rate : 48 b/s

  420. Count of elements : 1480

  421. Stream size : 48.9 KiB (0%)

  422. Title : Dansk

  423. Language : Danish

  424. Default : Yes

  425. Forced : No


  426. Text #6

  427. ID : 23

  428. Format : UTF-8

  429. Codec ID : S_TEXT/UTF8

  430. Codec ID/Info : UTF-8 Plain Text

  431. Duration : 2 h 16 min

  432. Bit rate : 50 b/s

  433. Count of elements : 1242

  434. Stream size : 50.8 KiB (0%)

  435. Title : Deutsch

  436. Language : German

  437. Default : Yes

  438. Forced : No


  439. Text #7

  440. ID : 24

  441. Format : UTF-8

  442. Codec ID : S_TEXT/UTF8

  443. Codec ID/Info : UTF-8 Plain Text

  444. Duration : 2 h 16 min

  445. Bit rate : 92 b/s

  446. Count of elements : 1482

  447. Stream size : 92.2 KiB (0%)

  448. Title : Ελληνικ?

  449. Language : Greek

  450. Default : Yes

  451. Forced : No


  452. Text #8

  453. ID : 25

  454. Format : UTF-8

  455. Codec ID : S_TEXT/UTF8

  456. Codec ID/Info : UTF-8 Plain Text

  457. Duration : 2 h 17 min

  458. Bit rate : 62 b/s

  459. Count of elements : 2195

  460. Stream size : 63.0 KiB (0%)

  461. Title : English - [ SDH ]

  462. Language : English

  463. Default : Yes

  464. Forced : No


  465. Text #9

  466. ID : 26

  467. Format : UTF-8

  468. Codec ID : S_TEXT/UTF8

  469. Codec ID/Info : UTF-8 Plain Text

  470. Duration : 2 h 16 min

  471. Bit rate : 49 b/s

  472. Count of elements : 1483

  473. Stream size : 49.2 KiB (0%)

  474. Title : Espa?ol ( Latinoamérica )

  475. Language : Spanish

  476. Default : Yes

  477. Forced : No


  478. Text #10

  479. ID : 27

  480. Format : UTF-8

  481. Codec ID : S_TEXT/UTF8

  482. Codec ID/Info : UTF-8 Plain Text

  483. Duration : 2 h 16 min

  484. Bit rate : 47 b/s

  485. Count of elements : 1484

  486. Stream size : 47.7 KiB (0%)

  487. Title : Espa?ol ( Espa?a )

  488. Language : Spanish

  489. Default : Yes

  490. Forced : No


  491. Text #11

  492. ID : 28

  493. Format : UTF-8

  494. Codec ID : S_TEXT/UTF8

  495. Codec ID/Info : UTF-8 Plain Text

  496. Duration : 2 h 16 min

  497. Bit rate : 46 b/s

  498. Count of elements : 1483

  499. Stream size : 46.9 KiB (0%)

  500. Title : Suomi

  501. Language : Finnish

  502. Default : Yes

  503. Forced : No


  504. Text #12

  505. ID : 29

  506. Format : UTF-8

  507. Codec ID : S_TEXT/UTF8

  508. Codec ID/Info : UTF-8 Plain Text

  509. Duration : 2 h 16 min

  510. Bit rate : 46 b/s

  511. Count of elements : 1454

  512. Stream size : 46.3 KiB (0%)

  513. Title : Filipino

  514. Language : fil

  515. Default : Yes

  516. Forced : No


  517. Text #13

  518. ID : 30

  519. Format : UTF-8

  520. Codec ID : S_TEXT/UTF8

  521. Codec ID/Info : UTF-8 Plain Text

  522. Duration : 2 h 16 min

  523. Bit rate : 49 b/s

  524. Count of elements : 1476

  525. Stream size : 49.7 KiB (0%)

  526. Title : Fran?ais (France)

  527. Language : French

  528. Default : Yes

  529. Forced : No


  530. Text #14

  531. ID : 31

  532. Format : UTF-8

  533. Codec ID : S_TEXT/UTF8

  534. Codec ID/Info : UTF-8 Plain Text

  535. Duration : 2 h 16 min

  536. Bit rate : 47 b/s

  537. Count of elements : 1482

  538. Stream size : 47.4 KiB (0%)

  539. Title : Fran?ais (Canada)

  540. Language : French

  541. Default : Yes

  542. Forced : No


  543. Text #15

  544. ID : 32

  545. Format : UTF-8

  546. Codec ID : S_TEXT/UTF8

  547. Codec ID/Info : UTF-8 Plain Text

  548. Duration : 2 h 16 min

  549. Bit rate : 76 b/s

  550. Count of elements : 1482

  551. Stream size : 76.2 KiB (0%)

  552. Title : ?????

  553. Language : Hebrew

  554. Default : Yes

  555. Forced : No


  556. Text #16

  557. ID : 33

  558. Format : UTF-8

  559. Codec ID : S_TEXT/UTF8

  560. Codec ID/Info : UTF-8 Plain Text

  561. Duration : 2 h 16 min

  562. Bit rate : 125 b/s

  563. Count of elements : 1483

  564. Stream size : 126 KiB (0%)

  565. Title : ??????

  566. Language : Hindi

  567. Default : Yes

  568. Forced : No


  569. Text #17

  570. ID : 34

  571. Format : UTF-8

  572. Codec ID : S_TEXT/UTF8

  573. Codec ID/Info : UTF-8 Plain Text

  574. Duration : 2 h 16 min

  575. Bit rate : 51 b/s

  576. Count of elements : 1479

  577. Stream size : 51.7 KiB (0%)

  578. Title : Magyar

  579. Language : Hungarian

  580. Default : Yes

  581. Forced : No


  582. Text #18

  583. ID : 35

  584. Format : UTF-8

  585. Codec ID : S_TEXT/UTF8

  586. Codec ID/Info : UTF-8 Plain Text

  587. Duration : 2 h 16 min

  588. Bit rate : 47 b/s

  589. Count of elements : 1483

  590. Stream size : 47.3 KiB (0%)

  591. Title : Indonesia

  592. Language : Indonesian

  593. Default : Yes

  594. Forced : No


  595. Text #19

  596. ID : 36

  597. Format : UTF-8

  598. Codec ID : S_TEXT/UTF8

  599. Codec ID/Info : UTF-8 Plain Text

  600. Duration : 2 h 16 min

  601. Bit rate : 49 b/s

  602. Count of elements : 1480

  603. Stream size : 49.1 KiB (0%)

  604. Title : Italiano

  605. Language : Italian

  606. Default : Yes

  607. Forced : No


  608. Text #20

  609. ID : 37

  610. Format : UTF-8

  611. Codec ID : S_TEXT/UTF8

  612. Codec ID/Info : UTF-8 Plain Text

  613. Duration : 2 h 16 min

  614. Bit rate : 37 b/s

  615. Count of elements : 1551

  616. Stream size : 37.9 KiB (0%)

  617. Title : 日本語

  618. Language : Japanese

  619. Default : Yes

  620. Forced : No


  621. Text #21

  622. ID : 38

  623. Format : UTF-8

  624. Codec ID : S_TEXT/UTF8

  625. Codec ID/Info : UTF-8 Plain Text

  626. Duration : 2 h 16 min

  627. Bit rate : 55 b/s

  628. Count of elements : 1483

  629. Stream size : 55.3 KiB (0%)

  630. Title : ???

  631. Language : Korean

  632. Default : Yes

  633. Forced : No


  634. Text #22

  635. ID : 39

  636. Format : UTF-8

  637. Codec ID : S_TEXT/UTF8

  638. Codec ID/Info : UTF-8 Plain Text

  639. Duration : 2 h 16 min

  640. Bit rate : 49 b/s

  641. Count of elements : 1481

  642. Stream size : 49.3 KiB (0%)

  643. Title : Bahasa Melayu

  644. Language : Malay

  645. Default : Yes

  646. Forced : No


  647. Text #23

  648. ID : 40

  649. Format : UTF-8

  650. Codec ID : S_TEXT/UTF8

  651. Codec ID/Info : UTF-8 Plain Text

  652. Duration : 2 h 16 min

  653. Bit rate : 47 b/s

  654. Count of elements : 1480

  655. Stream size : 47.3 KiB (0%)

  656. Title : Norsk Bokm?l

  657. Language : Norwegian

  658. Default : Yes

  659. Forced : No


  660. Text #24

  661. ID : 41

  662. Format : UTF-8

  663. Codec ID : S_TEXT/UTF8

  664. Codec ID/Info : UTF-8 Plain Text

  665. Duration : 2 h 16 min

  666. Bit rate : 44 b/s

  667. Count of elements : 1481

  668. Stream size : 44.8 KiB (0%)

  669. Title : Nederlands

  670. Language : Dutch

  671. Default : Yes

  672. Forced : No


  673. Text #25

  674. ID : 42

  675. Format : UTF-8

  676. Codec ID : S_TEXT/UTF8

  677. Codec ID/Info : UTF-8 Plain Text

  678. Duration : 2 h 16 min

  679. Bit rate : 47 b/s

  680. Count of elements : 1478

  681. Stream size : 47.5 KiB (0%)

  682. Title : Polski

  683. Language : Polish

  684. Default : Yes

  685. Forced : No


  686. Text #26

  687. ID : 43

  688. Format : UTF-8

  689. Codec ID : S_TEXT/UTF8

  690. Codec ID/Info : UTF-8 Plain Text

  691. Duration : 2 h 16 min

  692. Bit rate : 49 b/s

  693. Count of elements : 1482

  694. Stream size : 49.0 KiB (0%)

  695. Title : Português ( Brasil )

  696. Language : Portuguese

  697. Default : Yes

  698. Forced : No


  699. Text #27

  700. ID : 44

  701. Format : UTF-8

  702. Codec ID : S_TEXT/UTF8

  703. Codec ID/Info : UTF-8 Plain Text

  704. Duration : 2 h 16 min

  705. Bit rate : 49 b/s

  706. Count of elements : 1480

  707. Stream size : 49.0 KiB (0%)

  708. Title : Português ( Portugal )

  709. Language : Portuguese

  710. Default : Yes

  711. Forced : No


  712. Text #28

  713. ID : 45

  714. Format : UTF-8

  715. Codec ID : S_TEXT/UTF8

  716. Codec ID/Info : UTF-8 Plain Text

  717. Duration : 2 h 16 min

  718. Bit rate : 53 b/s

  719. Count of elements : 1480

  720. Stream size : 53.3 KiB (0%)

  721. Title : Roman?

  722. Language : Romanian

  723. Default : Yes

  724. Forced : No


  725. Text #29

  726. ID : 46

  727. Format : UTF-8

  728. Codec ID : S_TEXT/UTF8

  729. Codec ID/Info : UTF-8 Plain Text

  730. Duration : 2 h 16 min

  731. Bit rate : 79 b/s

  732. Count of elements : 1483

  733. Stream size : 79.3 KiB (0%)

  734. Title : Русский

  735. Language : Russian

  736. Default : Yes

  737. Forced : No


  738. Text #30

  739. ID : 47

  740. Format : UTF-8

  741. Codec ID : S_TEXT/UTF8

  742. Codec ID/Info : UTF-8 Plain Text

  743. Duration : 2 h 16 min

  744. Bit rate : 44 b/s

  745. Count of elements : 1478

  746. Stream size : 44.7 KiB (0%)

  747. Title : Svenska

  748. Language : Swedish

  749. Default : Yes

  750. Forced : No


  751. Text #31

  752. ID : 48

  753. Format : UTF-8

  754. Codec ID : S_TEXT/UTF8

  755. Codec ID/Info : UTF-8 Plain Text

  756. Duration : 2 h 16 min

  757. Bit rate : 126 b/s

  758. Count of elements : 1483

  759. Stream size : 127 KiB (0%)

  760. Title : ?????

  761. Language : Tamil

  762. Default : Yes

  763. Forced : No


  764. Text #32

  765. ID : 49

  766. Format : UTF-8

  767. Codec ID : S_TEXT/UTF8

  768. Codec ID/Info : UTF-8 Plain Text

  769. Duration : 2 h 16 min

  770. Bit rate : 126 b/s

  771. Count of elements : 1483

  772. Stream size : 127 KiB (0%)

  773. Title : ??????

  774. Language : Telugu

  775. Default : Yes

  776. Forced : No


  777. Text #33

  778. ID : 50

  779. Format : UTF-8

  780. Codec ID : S_TEXT/UTF8

  781. Codec ID/Info : UTF-8 Plain Text

  782. Duration : 2 h 16 min

  783. Bit rate : 124 b/s

  784. Count of elements : 1483

  785. Stream size : 124 KiB (0%)

  786. Title : ???

  787. Language : Thai

  788. Default : Yes

  789. Forced : No


  790. Text #34

  791. ID : 51

  792. Format : UTF-8

  793. Codec ID : S_TEXT/UTF8

  794. Codec ID/Info : UTF-8 Plain Text

  795. Duration : 2 h 16 min

  796. Bit rate : 48 b/s

  797. Count of elements : 1483

  798. Stream size : 48.6 KiB (0%)

  799. Title : Türk?e

  800. Language : Turkish

  801. Default : Yes

  802. Forced : No


文件下载


除非特别注明,本文『明日之战[简繁字幕].The.Tomorrow.War.2021.2160p.HDR.AMZN.WEB-DL.DDP5.1.HEVC-Lee-迅雷下载 24.10GB』来源于互联网机器人自动抓取,非本站原创。 浮游电影网不对本文拥有版权,如有侵犯,请联系邮箱:fuyouu#yandex.com[#换成@]投诉。我们会在15个工作日内删除。 但烦请转载时请标明出处:“本文转载于『浮游电影网』,原文地址:https://www.fuyouu.com/12852.html

评论吧骚年!

发表你的见解   

昵称*

E-mail*(建议输入,以便收到博主回复的提示邮件)

验证码*

您可以使用eMule或eMule Mod(Windows)、aMule(Win、Linux、Mac)等软件下载eD2k链接。。
eMule收藏集(.emulecollection)文件是您选中的所有链接的列表文件。eMule可以直接下载它们。
按住SHIFT键选择可以选中多个选择框。
可用文件名和大小选择器来选择文件。
文件名选择器帮您根据文件名称或后缀来选择文件。不分大小写。
符号使用:
和:空格( )、+
不包含:-
或:|
转义:一对英文引号("");
匹配开头:^
匹配结尾:$
例如:
选中所有名称中包含有“eMule”或“0.49c”字眼,但不包含有“exe”字眼的:emule|0.49c -exe
选中所有名称的开头是“eMule”,结尾是“0.49c”的:^emule 0.49c$
选中所有名称中带有“eMule 0.49c”的(必须是“eMule 0.49c”,中间没有别的字符,不能是“eMule fake 0.49c”),需要转义:"emule 0.49c"
大小选择器帮您根据文件大小选择文件。