当前位置: 首页 >> 欧美电影 >> 丝绸之路[中文字幕].Silk.Road.2021.1080p.BluRay.DTS.x265-10bit-迅雷下载 6.49GB >> 正文

丝绸之路[中文字幕].Silk.Road.2021.1080p.BluRay.DTS.x265-10bit-迅雷下载 6.49GB

2021年07月04日 14:49:27     电影发布:来源于网络     电影分类:欧美电影     评论(0)    

丝绸之路[中文字幕].Silk.Road.2021.1080p.BluRay.DTS.x265 10bit 迅雷下载 6.49GB 犯罪片 惊悚片 剧情片 欧美电影 第1张

◎译 名 丝绸之路 / 神鬼网战(台) / 丝绸之路的僵局 / Dead End on Silk Road

◎片 名 Silk Road

◎年 代 2021

◎产 地 美国

◎类 别 剧情 / 惊悚 / 犯罪

◎语 言 英语

◎上映日期 2021-02-19(美国)

◎IMDb链接 https://www.imdb.com/title/tt7937254/

◎豆瓣评分 5.8/10 (501人评价)

◎豆瓣链接 https://movie.douban.com/subject/30448876/

◎片 长 112分钟

◎演 员 尼克·罗宾森 Nick Robinson (id:1322130)

亚历山德拉·希普 Alexandra Shipp (id:1346503)

吉米·辛普森 Jimmi Simpson (id:1040576)

杰森·克拉克 Jason Clarke (id:1305193)

保罗·布特 Paul Blott (id:1418918)

达里尔·布里特-吉布森 Darrell Britt-Gibson (id:1342392)

丹尼尔·戴维·斯图尔特 Daniel David Stewart (id:1417547)

亚历珊德拉?瑞秋·拉贝 Alexandra Rachael Rabe (id:1415276)

肯尼斯·米勒 Kenneth Miller (id:1236878)

凯蒂·阿赛尔顿 Katie Aselton (id:1220566)

贝丝·贝利 Beth Bailey (id:1322824)

威尔·罗普 Will Ropp (id:1435673)

梅格·史密斯 Meg Smith (id:1444886)

崔维斯·汉默 Travis Hammer (id:1428748)

保罗·沃尔特·豪泽 Paul Walter Hauser (id:1268250)

麦克·米勒 Mike Miller (id:1187405)

罗莉凯恩 Raleigh Cain (id:1388033)

Phil Burke Phil Burke (id:1335230)

赛丽·罗杰斯 Tsailii Rogers (id:1394407)

罗德里戈·罗哈斯 Rodrigo Rojas (id:1324593)

斯科特·武田 Scott Takeda (id:1001388)

◎标 签 犯罪 / 美国 / 真实故事 / 2021 / 剧情 / 惊悚 / 美国电影 / 尼克·罗宾森杰森·克拉克

◎简 介

尼克·罗宾森、杰森·克拉克将主演犯罪题材新片[丝绸之路](SilkRoad,暂译)。本片由蒂勒·罗素([耻归故里])执导,根据大卫·库什纳发表在《滚石》杂志的文章《丝绸之路的僵局》(DeadEndonSilkRoad)改编。文章讲述黑客、毒贩罗斯·乌布里希特经营着一个庞大的网上黑市。本片将聚焦乌布里希特以及决心搞垮这个年轻主脑价值10亿美元帝国的缉毒员间的故事。

  1. General

  2. Unique ID : 169758004620523181567958723152145968554 (0x7FB633D31868115331511C3D8A366DAA)

  3. Complete name : Silk.Road.2021.1080p.BluRay.DTS.x265-10bit-HDS.mkv

  4. Format : Matroska

  5. Format version : Version 4

  6. File size : 6.49 GiB

  7. Duration : 1 h 56 min

  8. Overall bit rate : 7 962 kb/s

  9. Movie name : Silk Road 2021 1080p BluRay DTS x265-10bit-HDS

  10. Encoded date : UTC 2021-06-26 22:57:31

  11. Writing application : mkvmerge v38.0.0 ('The Silent Type') 64-bit

  12. Writing library : libebml v1.3.9 + libmatroska v1.5.2


  13. Video

  14. ID : 1

  15. Format : HEVC

  16. Format/Info : High Efficiency Video Coding

  17. Format profile : Main 10@L5.1@High

  18. Codec ID : V_MPEGH/ISO/HEVC

  19. Duration : 1 h 56 min

  20. Bit rate : 6 395 kb/s

  21. Width : 1 920 pixels

  22. Height : 800 pixels

  23. Display aspect ratio : 2.40:1

  24. Frame rate mode : Constant

  25. Frame rate : 23.976 (24000/1001/53354) FPS

  26. Color space : YUV

  27. Chroma subsampling : 4:2:0

  28. Bit depth : 10 bits

  29. Bits/(Pixel*Frame) : 0.174

  30. Stream size : 5.21 GiB (80%)

  31. Title : howfuckedareyounow@HDSky

  32. Writing library : x265 - H.265/HEVC codec

  33. Default : Yes

  34. Forced : No


  35. Audio

  36. ID : 2

  37. Format : DTS

  38. Format/Info : Digital Theater Systems

  39. Codec ID : A_DTS

  40. Duration : 1 h 56 min

  41. Bit rate mode : Constant

  42. Bit rate : 1 509 kb/s

  43. Channel(s) : 6 channels

  44. Channel layout : C L R Ls Rs LFE

  45. Sampling rate : 48.0 kHz

  46. Frame rate : 93.750 FPS (512 SPF)

  47. Bit depth : 24 bits

  48. Compression mode : Lossy

  49. Stream size : 1.23 GiB (19%)

  50. Title : English

  51. Language : English

  52. Default : Yes

  53. Forced : No


  54. Text #1

  55. ID : 3

  56. Format : PGS

  57. Muxing mode : zlib

  58. Codec ID : S_HDMV/PGS

  59. Codec ID/Info : Picture based subtitle format used on BDs/HD-DVDs

  60. Duration : 1 h 48 min

  61. Bit rate : 35.0 kb/s

  62. Count of elements : 3158

  63. Stream size : 27.1 MiB (0%)

  64. Title : CHS

  65. Language : Chinese

  66. Default : Yes

  67. Forced : No


  68. Text #2

  69. ID : 4

  70. Format : PGS

  71. Muxing mode : zlib

  72. Codec ID : S_HDMV/PGS

  73. Codec ID/Info : Picture based subtitle format used on BDs/HD-DVDs

  74. Duration : 1 h 48 min

  75. Bit rate : 35.9 kb/s

  76. Count of elements : 3158

  77. Stream size : 27.8 MiB (0%)

  78. Title : CHT

  79. Language : Chinese

  80. Default : No

  81. Forced : No


  82. Text #3

  83. ID : 5

  84. Format : PGS

  85. Muxing mode : zlib

  86. Codec ID : S_HDMV/PGS

  87. Codec ID/Info : Picture based subtitle format used on BDs/HD-DVDs

  88. Duration : 1 h 48 min

  89. Bit rate : 47.4 kb/s

  90. Count of elements : 3458

  91. Stream size : 36.8 MiB (1%)

  92. Title : ENG

  93. Language : English

  94. Default : No

  95. Forced : No


  96. Menu

  97. 00:00:00.000 : en:Chapter 01

  98. 00:04:57.797 : en:Chapter 02

  99. 00:10:53.987 : en:Chapter 03

  100. 00:18:47.251 : en:Chapter 04

  101. 00:24:07.821 : en:Chapter 05

  102. 00:30:02.759 : en:Chapter 06

  103. 00:34:28.733 : en:Chapter 07

  104. 00:40:52.492 : en:Chapter 08

  105. 00:47:19.545 : en:Chapter 09

  106. 00:55:24.238 : en:Chapter 10

  107. 01:04:29.074 : en:Chapter 11

  108. 01:13:10.052 : en:Chapter 12

  109. 01:21:47.820 : en:Chapter 13

  110. 01:30:01.730 : en:Chapter 14

  111. 01:37:16.164 : en:Chapter 15

  112. 01:44:16.917 : en:Chapter 16



文件下载


除非特别注明,本文『丝绸之路[中文字幕].Silk.Road.2021.1080p.BluRay.DTS.x265-10bit-迅雷下载 6.49GB』来源于互联网机器人自动抓取,非本站原创。 浮游电影网不对本文拥有版权,如有侵犯,请联系邮箱:fuyouu#yandex.com[#换成@]投诉。我们会在15个工作日内删除。 但烦请转载时请标明出处:“本文转载于『浮游电影网』,原文地址:https://www.fuyouu.com/12851.html

评论吧骚年!

发表你的见解   

昵称*

E-mail*(建议输入,以便收到博主回复的提示邮件)

验证码*

您可以使用eMule或eMule Mod(Windows)、aMule(Win、Linux、Mac)等软件下载eD2k链接。。
eMule收藏集(.emulecollection)文件是您选中的所有链接的列表文件。eMule可以直接下载它们。
按住SHIFT键选择可以选中多个选择框。
可用文件名和大小选择器来选择文件。
文件名选择器帮您根据文件名称或后缀来选择文件。不分大小写。
符号使用:
和:空格( )、+
不包含:-
或:|
转义:一对英文引号("");
匹配开头:^
匹配结尾:$
例如:
选中所有名称中包含有“eMule”或“0.49c”字眼,但不包含有“exe”字眼的:emule|0.49c -exe
选中所有名称的开头是“eMule”,结尾是“0.49c”的:^emule 0.49c$
选中所有名称中带有“eMule 0.49c”的(必须是“eMule 0.49c”,中间没有别的字符,不能是“eMule fake 0.49c”),需要转义:"emule 0.49c"
大小选择器帮您根据文件大小选择文件。