当前位置: 首页 >> 国产电影 >> 秘密访客[国语中字].Home.Sweet.Home.2021.V2.2160p.WEB-DL.H265.DDP5.1.Atmos-迅雷下载 12.12GB >> 正文

秘密访客[国语中字].Home.Sweet.Home.2021.V2.2160p.WEB-DL.H265.DDP5.1.Atmos-迅雷下载 12.12GB

2021年07月02日 12:57:20     电影发布:来源于网络     电影分类:国产电影     评论(0)    

秘密访客[国语中字].Home.Sweet.Home.2021.V2.2160p.WEB DL.H265.DDP5.1.Atmos 迅雷下载 12.12GB 悬疑片 惊悚片 国产电影  第1张

◎译 名 秘密访客 / Home Sweet Home

◎年 代 2021

◎产 地 中国大陆

◎类 别 悬疑 / 惊悚

◎语 言 汉语普通话

◎上映日期 2021-05-01(中国大陆)

◎IMDb链接 https://www.imdb.com/title/tt10097384/

◎豆瓣评分 5.4/10 (138221人评价)

◎豆瓣链接 https://movie.douban.com/subject/30378158/

◎片 长 111分钟

◎导 演 陈正道 Leste Chen (id:1189801)

◎编 剧 殳俏 Qiao Shu (id:1404459)

易帅婕 Shuaijie Yi (id:1444843)

◎演 员 郭富城 Aaron Kwok (id:1041390)

段奕宏 Yihong Duan (id:1274291)

张子枫 Zifeng Zhang (id:1274254)

许玮甯 Wei-Ning Hsu (id:1315600)

荣梓杉 Zishan Rong (id:1352321)

王圣迪 Shengdi Wang (id:1407876)

吕聿来 Yulai Lü (id:1274390)

张柏嘉 Baijia Zhang (id:1386912)

孔雁 Yan Kong (id:1397195)

梁翘柏 Kubert Leung (id:1327173)

林志坚 Charlie Lam (id:1304405)

罗顺福 Shunfu Luo (id:1362884)

李言 Yan Li (id:1456204)

叶竹真 Jewel Yeh (id:1397769)

◎标 签 悬疑 / 家庭 / 犯罪 / 剧情 / 惊悚 / 推理 / 2021 / 中国大陆

◎简 介

校车司机于困樵(段奕宏饰)因失职酿成了一起重大的校车车祸,困樵拼死救出了似与车祸背后真相息息相关的汪楚祺(荣梓杉饰),校车上的其他学生无人生还。

得知此事家境显赫的汪父(郭富城饰)为了隐藏这个秘密,不得不把困樵藏在自己家的地下室里长达三年,却处处暗示困樵何时自首。随着访客的到来,这个原本温馨和睦的四口之家变得越来越诡异,母亲(许玮甯饰)整日惴惴不安,姐姐(张子枫饰)举止一反常态,家人个个心怀鬼胎,怪事频出,这个家背后不可告人的秘密似乎即将浮出水面……

◎获奖情况 (共1项)

第7届豆瓣电影年度榜单 (2020)

最值得期待的华语电影(提名)

  1. General

  2. Complete name : 秘密访客.Home.Sweet.Home.2021.V2.2160p.WEB-DL.H265.DDP5.1.Atmos-OurTV.mp4

  3. Format : MPEG-4

  4. Format profile : Base Media

  5. Codec ID : isom (isom/iso2/mp41)

  6. File size : 12.1 GiB

  7. Duration : 1 h 49 min

  8. Overall bit rate : 15.8 Mb/s

  9. Writing application : Lavf58.19.100


  10. Video

  11. ID : 1

  12. Format : HEVC

  13. Format/Info : High Efficiency Video Coding

  14. Format profile : Main@L5@High

  15. Codec ID : hev1

  16. Codec ID/Info : High Efficiency Video Coding

  17. Duration : 1 h 49 min

  18. Bit rate : 14.9 Mb/s

  19. Width : 4 096 pixels

  20. Height : 1 740 pixels

  21. Display aspect ratio : 2.35:1

  22. Original display aspect ratio : 2.35:1

  23. Frame rate mode : Variable

  24. Frame rate : 25.000 FPS

  25. Minimum frame rate : 25.000 FPS

  26. Maximum frame rate : 90 000.000 FPS

  27. Color space : YUV

  28. Chroma subsampling : 4:2:0

  29. Bit depth : 8 bits

  30. Bits/(Pixel*Frame) : 0.084

  31. Stream size : 11.4 GiB (94%)

  32. Codec configuration box : hvcC


  33. Audio #1

  34. ID : 2

  35. Format : E-AC-3 JOC

  36. Format/Info : Enhanced AC-3 with Joint Object Coding

  37. Commercial name : Dolby Digital Plus with Dolby Atmos

  38. Codec ID : ec-3

  39. Duration : 1 h 49 min

  40. Bit rate mode : Constant

  41. Bit rate : 448 kb/s

  42. Channel(s) : 6 channels

  43. Channel layout : L R C LFE Ls Rs

  44. Sampling rate : 48.0 kHz

  45. Frame rate : 31.250 FPS (1536 SPF)

  46. Compression mode : Lossy

  47. Stream size : 352 MiB (3%)

  48. Title : 国语全景声

  49. Language : Chinese

  50. Service kind : Complete Main

  51. Default : Yes

  52. Alternate group : 1

  53. Complexity index : Not present / 16

  54. Number of dynamic objects : 15

  55. Bed channel count : 1 channel

  56. Bed channel configuration : LFE


  57. Audio #2

  58. ID : 3

  59. Format : E-AC-3

  60. Format/Info : Enhanced AC-3

  61. Commercial name : Dolby Digital Plus

  62. Codec ID : ec-3

  63. Duration : 1 h 49 min

  64. Bit rate mode : Constant

  65. Bit rate : 256 kb/s

  66. Channel(s) : 2 channels

  67. Channel layout : L R

  68. Sampling rate : 48.0 kHz

  69. Frame rate : 31.250 FPS (1536 SPF)

  70. Compression mode : Lossy

  71. Stream size : 201 MiB (2%)

  72. Title : 国语DDP2.0

  73. Language : Chinese

  74. Service kind : Complete Main

  75. Default : No

  76. Alternate group : 1


  77. Audio #3

  78. ID : 4

  79. Format : AAC LC

  80. Format/Info : Advanced Audio Codec Low Complexity

  81. Codec ID : mp4a-40-2

  82. Duration : 1 h 49 min

  83. Bit rate mode : Constant

  84. Bit rate : 192 kb/s

  85. Channel(s) : 2 channels

  86. Channel layout : L R

  87. Sampling rate : 44.1 kHz

  88. Frame rate : 43.066 FPS (1024 SPF)

  89. Compression mode : Lossy

  90. Stream size : 149 MiB (1%)

  91. Title : 国语AAC2.0

  92. Language : Chinese

  93. Default : No

  94. Alternate group : 1



文件下载


除非特别注明,本文『秘密访客[国语中字].Home.Sweet.Home.2021.V2.2160p.WEB-DL.H265.DDP5.1.Atmos-迅雷下载 12.12GB』来源于互联网机器人自动抓取,非本站原创。 浮游电影网不对本文拥有版权,如有侵犯,请联系邮箱:fuyouu#yandex.com[#换成@]投诉。我们会在15个工作日内删除。 但烦请转载时请标明出处:“本文转载于『浮游电影网』,原文地址:https://www.fuyouu.com/12836.html

评论吧骚年!

发表你的见解   

昵称*

E-mail*(建议输入,以便收到博主回复的提示邮件)

验证码*

您可以使用eMule或eMule Mod(Windows)、aMule(Win、Linux、Mac)等软件下载eD2k链接。。
eMule收藏集(.emulecollection)文件是您选中的所有链接的列表文件。eMule可以直接下载它们。
按住SHIFT键选择可以选中多个选择框。
可用文件名和大小选择器来选择文件。
文件名选择器帮您根据文件名称或后缀来选择文件。不分大小写。
符号使用:
和:空格( )、+
不包含:-
或:|
转义:一对英文引号("");
匹配开头:^
匹配结尾:$
例如:
选中所有名称中包含有“eMule”或“0.49c”字眼,但不包含有“exe”字眼的:emule|0.49c -exe
选中所有名称的开头是“eMule”,结尾是“0.49c”的:^emule 0.49c$
选中所有名称中带有“eMule 0.49c”的(必须是“eMule 0.49c”,中间没有别的字符,不能是“eMule fake 0.49c”),需要转义:"emule 0.49c"
大小选择器帮您根据文件大小选择文件。