当前位置: 首页 >> 港台电影 >> 开心鬼救开心鬼[国语中字].Happy.Ghost.IV.1990.2160p.WEB-DL.H265.AAC-迅雷下载 8.85GB >> 正文

开心鬼救开心鬼[国语中字].Happy.Ghost.IV.1990.2160p.WEB-DL.H265.AAC-迅雷下载 8.85GB

2021年07月02日 12:55:58     电影发布:来源于网络     电影分类:港台电影     评论(0)    

开心鬼救开心鬼[国语中字].Happy.Ghost.IV.1990.2160p.WEB DL.H265.AAC 迅雷下载 8.85GB 奇幻片 恐怖片 喜剧片 港台电影 第1张

◎译 名 开心鬼救开心鬼 / Happy Ghost IV

◎片 名 開心鬼救開心鬼

◎年 代 1990

◎产 地 中国香港

◎类 别 喜剧 / 恐怖 / 奇幻

◎语 言 粤语

◎上映日期 1990-06-30(中国香港)

◎IMDb链接 https://www.imdb.com/title/tt0097638/

◎豆瓣评分 7.3/10 (16743人评价)

◎豆瓣链接 https://movie.douban.com/subject/1307221/

◎片 长 84分钟

◎导 演 高志森 Clifton Ko (id:1281025)

◎编 剧 马伟豪 Joe Ma (id:1290574)

吴文辉 Man Fai Ng (id:1293117)

郑忠泰 Philip Cheng (id:1322096)

◎演 员 黄百鸣 Raymond Wong (id:1275277)

杨宝玲 Pauline Yeung (id:1001559)

黄光亮 Kwong Leung Wong (id:1301194)

黄霑 James Wong (id:1008091)

李丽珍 Loletta Lee (id:1016848)

袁洁莹 Fennie Yuen (id:1051082)

刘洵 Shun Lau (id:1274304)

黄家驹 Ka-Kui Wong (id:1019978)

高志森 Clifton Ko (id:1281025)

罗美薇 May Lo Mei-Mei (id:1116805)

陈加玲 Charine Chan (id:1043022)

黄贯中 Goon Chung Wong (id:1162371)

叶世荣 Sai-Wing Yip (id:1163475)

黄家强 Kar-Keung Wong (id:1301202)

余慕蓮 Mo-Lin Yu (id:1345424)

招石文 Shek-Man Chiu (id:1345872)

冯雪瑞 Xuerui Feng (id:1329826)

刘嘉蔚 Catherine Lau (id:1341597)

朱日红 Yat-Hung Chu (id:1330740)

黎永强 (id:1424904)

卢瑞莲 Sui Lin Lo (id:1381129)

张肇麟 Roman Cheung (id:1315118)

朱日红 Yat-Hung Chu (id:1330740)

徐克 Hark Tsui (id:1007152)

◎标 签 喜剧 / 香港 / 黄百鸣 / 香港电影 / 开心鬼救开心鬼 / Beyond / 搞笑 / 开心鬼

◎简 介

香港教师康森贵(黄百鸣饰)前世是法力高强的“开心鬼”,凭着“开心鬼”的帮助,他拥有超乎常人的超能力。校长的女儿安妮(杨宝玲饰)是康的女友,两人非常恩爱。一日,康班里的四名顽皮学生被捉弄流落到荒野,意外捡到了一套古代将军的盔甲,并将它带回了宿舍。这位古代将军的魂魄因为吸收了四人的阳气而成精,当他看到四名学生和康与她女友的合影时,前世的往事又涌上了心头,原来安妮的前世杀了将军,将军的精魂决心今世进行报复!

  1. General

  2. Complete name : 开心鬼救开心鬼.Happy.Ghost.IV.1990.2160p.WEB-DL.H265.AAC-OurTV.mp4

  3. Format : MPEG-4

  4. Format profile : Base Media

  5. Codec ID : isom (isom/iso2/mp41)

  6. File size : 8.85 GiB

  7. Duration : 1 h 23 min

  8. Overall bit rate mode : Variable

  9. Overall bit rate : 15.1 Mb/s

  10. Writing application : Lavf58.19.100


  11. Video

  12. ID : 1

  13. Format : HEVC

  14. Format/Info : High Efficiency Video Coding

  15. Format profile : Main@L5@High

  16. Codec ID : hev1

  17. Codec ID/Info : High Efficiency Video Coding

  18. Duration : 1 h 23 min

  19. Bit rate : 15.0 Mb/s

  20. Width : 3 840 pixels

  21. Height : 2 160 pixels

  22. Display aspect ratio : 16:9

  23. Frame rate mode : Variable

  24. Frame rate : 25.000 FPS

  25. Minimum frame rate : 25.000 FPS

  26. Maximum frame rate : 90 000.000 FPS

  27. Color space : YUV

  28. Chroma subsampling : 4:2:0

  29. Bit depth : 8 bits

  30. Bits/(Pixel*Frame) : 0.072

  31. Stream size : 8.77 GiB (99%)

  32. Codec configuration box : hvcC


  33. Audio

  34. ID : 2

  35. Format : AAC LC

  36. Format/Info : Advanced Audio Codec Low Complexity

  37. Codec ID : mp4a-40-2

  38. Duration : 1 h 23 min

  39. Bit rate mode : Variable

  40. Bit rate : 125 kb/s

  41. Maximum bit rate : 135 kb/s

  42. Channel(s) : 2 channels

  43. Channel layout : L R

  44. Sampling rate : 48.0 kHz

  45. Frame rate : 46.875 FPS (1024 SPF)

  46. Compression mode : Lossy

  47. Stream size : 75.2 MiB (1%)

  48. Default : Yes

  49. Alternate group : 1



文件下载


除非特别注明,本文『开心鬼救开心鬼[国语中字].Happy.Ghost.IV.1990.2160p.WEB-DL.H265.AAC-迅雷下载 8.85GB』来源于互联网机器人自动抓取,非本站原创。 浮游电影网不对本文拥有版权,如有侵犯,请联系邮箱:fuyouu#yandex.com[#换成@]投诉。我们会在15个工作日内删除。 但烦请转载时请标明出处:“本文转载于『浮游电影网』,原文地址:https://www.fuyouu.com/12835.html

评论吧骚年!

发表你的见解   

昵称*

E-mail*(建议输入,以便收到博主回复的提示邮件)

验证码*

您可以使用eMule或eMule Mod(Windows)、aMule(Win、Linux、Mac)等软件下载eD2k链接。。
eMule收藏集(.emulecollection)文件是您选中的所有链接的列表文件。eMule可以直接下载它们。
按住SHIFT键选择可以选中多个选择框。
可用文件名和大小选择器来选择文件。
文件名选择器帮您根据文件名称或后缀来选择文件。不分大小写。
符号使用:
和:空格( )、+
不包含:-
或:|
转义:一对英文引号("");
匹配开头:^
匹配结尾:$
例如:
选中所有名称中包含有“eMule”或“0.49c”字眼,但不包含有“exe”字眼的:emule|0.49c -exe
选中所有名称的开头是“eMule”,结尾是“0.49c”的:^emule 0.49c$
选中所有名称中带有“eMule 0.49c”的(必须是“eMule 0.49c”,中间没有别的字符,不能是“eMule fake 0.49c”),需要转义:"emule 0.49c"
大小选择器帮您根据文件大小选择文件。