当前位置: 首页 >> 国产电影 >> 至尊先生之金蝉蛊[国语音轨/简繁字幕].Mr..Zombie.The.Venomous.Parasite.2021.WEB-DL.1080p.迅雷下载 1.19GB >> 正文

至尊先生之金蝉蛊[国语音轨/简繁字幕].Mr..Zombie.The.Venomous.Parasite.2021.WEB-DL.1080p.迅雷下载 1.19GB

2021年07月02日 12:35:22     电影发布:来源于网络     电影分类:国产电影     评论(0)    

至尊先生之金蝉蛊[国语音轨/简繁字幕].Mr..Zombie.The.Venomous.Parasite.2021.WEB DL.1080p.迅雷下载 1.19GB 剧情片 国产电影  第1张

◎译 名 至尊先生之金蝉蛊 / Mr. Zombie

◎年 代 2021

◎产 地 中国大陆

◎语 言 汉语普通话

◎上映日期 2021-06-26(中国大陆网络)

◎IMDb链接 https://www.imdb.com/title//

◎豆瓣链接 https://movie.douban.com/subject/35510720/

◎导 演 张伟 Wei Zhang (id:1448668)

◎演 员 钱小豪 Siu-hou Chin (id:1005415)

李殿尊 Dianzun Li (id:1420569)

◎标 签 钱小豪 / 僵尸 / 惊悚 / 屎 / 大陆 / 2021 / 良心剧 / 恐怖

◎简 介

故事讲述了民国年间,豪哥和两个徒弟,凭借自身高强的武功、过人的才智和敏锐的观察能力,破解小镇“僵尸”作乱的玄案,并铲除了利用封建迷信作恶的邪教组织,解救了小镇村民安危的传奇经历。

  1. General

  2. Unique ID : 98539549379440207097888620929233033915 (0x4A2206E1FA00AB296C7B9D39CB2D9ABB)

  3. Complete name : Mr..Zombie.The.Venomous.Parasite.2021.WEB-DL.1080p.H265.AAC-Dave.mkv

  4. Format : Matroska

  5. Format version : Version 4

  6. File size : 1.19 GiB

  7. Duration : 1 h 19 min

  8. Overall bit rate : 2 149 kb/s

  9. Encoded date : UTC 2021-06-30 10:35:27

  10. Writing application : mkvmerge v58.0.0 ('Supper's Ready') 64-bit

  11. Writing library : libebml v1.4.2 + libmatroska v1.6.4


  12. Video

  13. ID : 1

  14. Format : HEVC

  15. Format/Info : High Efficiency Video Coding

  16. Format profile : Main@L4@Main

  17. Codec ID : V_MPEGH/ISO/HEVC

  18. Duration : 1 h 19 min

  19. Bit rate : 1 957 kb/s

  20. Width : 1 920 pixels

  21. Height : 816 pixels

  22. Display aspect ratio : 2.35:1

  23. Frame rate mode : Constant

  24. Frame rate : 24.000 FPS

  25. Color space : YUV

  26. Chroma subsampling : 4:2:0

  27. Bit depth : 8 bits

  28. Bits/(Pixel*Frame) : 0.052

  29. Stream size : 1.08 GiB (91%)

  30. Default : Yes

  31. Forced : No


  32. Audio

  33. ID : 2

  34. Format : AAC LC

  35. Format/Info : Advanced Audio Codec Low Complexity

  36. Codec ID : A_AAC-2

  37. Duration : 1 h 19 min

  38. Bit rate : 192 kb/s

  39. Channel(s) : 2 channels

  40. Channel layout : L R

  41. Sampling rate : 44.1 kHz

  42. Frame rate : 43.066 FPS (1024 SPF)

  43. Compression mode : Lossy

  44. Stream size : 107 MiB (9%)

  45. Title : 国语

  46. Language : Chinese

  47. Default : Yes

  48. Forced : No


  49. Text #1

  50. ID : 3

  51. Format : UTF-8

  52. Codec ID : S_TEXT/UTF8

  53. Codec ID/Info : UTF-8 Plain Text

  54. Duration : 1 h 13 min

  55. Bit rate : 27 b/s

  56. Count of elements : 975

  57. Stream size : 14.7 KiB (0%)

  58. Title : 简体中文

  59. Language : Chinese

  60. Default : Yes

  61. Forced : No


  62. Text #2

  63. ID : 4

  64. Format : UTF-8

  65. Codec ID : S_TEXT/UTF8

  66. Codec ID/Info : UTF-8 Plain Text

  67. Duration : 1 h 13 min

  68. Bit rate : 26 b/s

  69. Count of elements : 965

  70. Stream size : 14.4 KiB (0%)

  71. Title : 繁体中文

  72. Language : Chinese

  73. Default : No

  74. Forced : No


  75. Text #3

  76. ID : 5

  77. Format : UTF-8

  78. Codec ID : S_TEXT/UTF8

  79. Codec ID/Info : UTF-8 Plain Text

  80. Duration : 1 h 17 min

  81. Bit rate : 30 b/s

  82. Count of elements : 971

  83. Stream size : 17.4 KiB (0%)

  84. Title : 英语

  85. Language : English

  86. Default : No

  87. Forced : No


  88. Text #4

  89. ID : 6

  90. Format : UTF-8

  91. Codec ID : S_TEXT/UTF8

  92. Codec ID/Info : UTF-8 Plain Text

  93. Duration : 1 h 17 min

  94. Bit rate : 37 b/s

  95. Count of elements : 976

  96. Stream size : 21.2 KiB (0%)

  97. Title : 韩语

  98. Language : Korean

  99. Default : No

  100. Forced : No


  101. Text #5

  102. ID : 7

  103. Format : UTF-8

  104. Codec ID : S_TEXT/UTF8

  105. Codec ID/Info : UTF-8 Plain Text

  106. Duration : 1 h 17 min

  107. Bit rate : 88 b/s

  108. Count of elements : 976

  109. Stream size : 50.4 KiB (0%)

  110. Title : 泰语

  111. Language : Thai

  112. Default : No

  113. Forced : No


  114. Text #6

  115. ID : 8

  116. Format : UTF-8

  117. Codec ID : S_TEXT/UTF8

  118. Codec ID/Info : UTF-8 Plain Text

  119. Duration : 1 h 17 min

  120. Bit rate : 31 b/s

  121. Count of elements : 973

  122. Stream size : 18.1 KiB (0%)

  123. Title : 马来语

  124. Language : Malay

  125. Default : No

  126. Forced : No


  127. Text #7

  128. ID : 9

  129. Format : UTF-8

  130. Codec ID : S_TEXT/UTF8

  131. Codec ID/Info : UTF-8 Plain Text

  132. Duration : 1 h 17 min

  133. Bit rate : 47 b/s

  134. Count of elements : 976

  135. Stream size : 26.9 KiB (0%)

  136. Title : 越南语

  137. Language : Vietnamese

  138. Default : No

  139. Forced : No


  140. Text #8

  141. ID : 10

  142. Format : UTF-8

  143. Codec ID : S_TEXT/UTF8

  144. Codec ID/Info : UTF-8 Plain Text

  145. Duration : 1 h 17 min

  146. Bit rate : 35 b/s

  147. Count of elements : 976

  148. Stream size : 20.4 KiB (0%)

  149. Title : 印尼语

  150. Language : Indonesian

  151. Default : No

  152. Forced : No


  153. Text #9

  154. ID : 11

  155. Format : UTF-8

  156. Codec ID : S_TEXT/UTF8

  157. Codec ID/Info : UTF-8 Plain Text

  158. Duration : 1 h 17 min

  159. Bit rate : 55 b/s

  160. Count of elements : 966

  161. Stream size : 31.5 KiB (0%)

  162. Title : 阿拉伯语

  163. Language : Arabic

  164. Default : No

  165. Forced : No



文件下载


除非特别注明,本文『至尊先生之金蝉蛊[国语音轨/简繁字幕].Mr..Zombie.The.Venomous.Parasite.2021.WEB-DL.1080p.迅雷下载 1.19GB』来源于互联网机器人自动抓取,非本站原创。 浮游电影网不对本文拥有版权,如有侵犯,请联系邮箱:fuyouu#yandex.com[#换成@]投诉。我们会在15个工作日内删除。 但烦请转载时请标明出处:“本文转载于『浮游电影网』,原文地址:https://www.fuyouu.com/12825.html

评论吧骚年!

发表你的见解   

昵称*

E-mail*(建议输入,以便收到博主回复的提示邮件)

验证码*

您可以使用eMule或eMule Mod(Windows)、aMule(Win、Linux、Mac)等软件下载eD2k链接。。
eMule收藏集(.emulecollection)文件是您选中的所有链接的列表文件。eMule可以直接下载它们。
按住SHIFT键选择可以选中多个选择框。
可用文件名和大小选择器来选择文件。
文件名选择器帮您根据文件名称或后缀来选择文件。不分大小写。
符号使用:
和:空格( )、+
不包含:-
或:|
转义:一对英文引号("");
匹配开头:^
匹配结尾:$
例如:
选中所有名称中包含有“eMule”或“0.49c”字眼,但不包含有“exe”字眼的:emule|0.49c -exe
选中所有名称的开头是“eMule”,结尾是“0.49c”的:^emule 0.49c$
选中所有名称中带有“eMule 0.49c”的(必须是“eMule 0.49c”,中间没有别的字符,不能是“eMule fake 0.49c”),需要转义:"emule 0.49c"
大小选择器帮您根据文件大小选择文件。