当前位置: 首页 >> 国产电影 >> 大进军四部曲打包[国语音轨].The.Great.Military.March.Forward.Tetralogy.1996-1999.WEB-DL.1080p.迅雷下载 8.81G >> 正文

大进军四部曲打包[国语音轨].The.Great.Military.March.Forward.Tetralogy.1996-1999.WEB-DL.1080p.迅雷下载 8.81G

2021年07月02日 12:34:10     电影发布:来源于网络     电影分类:国产电影     评论(0)    

大进军四部曲打包[国语音轨].The.Great.Military.March.Forward.Tetralogy.1996 1999.WEB DL.1080p.迅雷下载 8.81G 战争片 剧情片 国产电影  第1张

◎译 名 大进军——解放大西北 / Great Battle: Liberation of Northwest China / The Great Military March Forward: Liberate the Northwest

◎年 代 1996

◎产 地 中国大陆

◎类 别 剧情 / 战争

◎语 言 汉语普通话

◎IMDb链接 https://www.imdb.com/title/tt6761516/

◎豆瓣评分 7.0/10 (668人评价)

◎豆瓣链接 https://movie.douban.com/subject/3403158/

◎片 长 150分钟

◎导 演 韦林玉 Linyu Wei (id:1353184)

◎编 剧 李平分 Pingfen Li (id:1322262)

宋绍明 Shaoming Song (id:1372933)

◎演 员 吕晓禾 Xiaohe Lü (id:1290393)

傅英 Ying Fu (id:1372931)

周洁 Jie Zhou (id:1315858)

古月 Yue Gu (id:1285578)

赵恒多 Hengduo Zhao (id:1318335)

秦昭 Zhao Qin (id:1372929)

杜雨露 Yulu Du (id:1313874)

郑在石 Zaishi Zheng (id:1326779)

李龙吟 Longyin Li (id:1324235)

阎雨生 Yusheng Yan (id:1372932)

袁志顺 Zhishun Yuan (id:1402746)

陈锐 Rui Chen (id:1313479)

赵彦民 Yanmin Zhao (id:1318456)

高长利 Changli Gao (id:1374145)

刘龙 Long Liu (id:1333791)

吴俊全 Junquan Wu (id:1328417)

程建勋 Jianxun Cheng (id:1412863)

杨次禹 Ciyu Yang (id:1372937)

李忠林 Zhonglin Li (id:1443271)

赵晓明 Xiaoming Zhao (id:1319823)

谈卫忠 Weizhong Tan (id:1365171)

王力民 Limin Wang (id:1401253)

王乃聪 Naichong Wang (id:1381205)

韦林玉 Linyu Wei (id:1353184)

◎标 签 战争 / 解放战争 / 历史 / 中国电影 / 中国 / 1996 / 大陆 / 主旋律

◎简 介

解放战争时。面对国民党政府拒在和平协议上签字,毛主席(古月饰)向西北野战军司令员彭德怀(吕晓禾饰)下达了进军西北的作战命令。由于三大战役胜利结束,西北守敌己成瓮中之鳖,胡宗南(杜雨露饰)、马步芳(李龙吟饰)、马鸿逵(阎雨生饰)之间又各自为一已之私考虑,军心涣散。咸阳保卫战后,彭德怀组织主力围歼胡宗南部,经激战三昼夜,胡匪全军覆灭。“二马”惶惶不可终日,决心孤注一掷,在兰州城外与我西北野战军决战。战役开始,马匪仰仗坚固工事,居高临下,给我攻城部队带来很大困难。彭德怀审时度势,组织部队抢占致高点,用猛烈炮火轰击敌阵地。不日,兰州解放。国民党陶峙岳部新疆省主席宣布起义......

  1. General

  2. Complete name : The Great Military March Forward Pursue and Wipe Out in the South 1997 WEB-DL 1080p H264 AAC-Dave.mp4

  3. Format : MPEG-4

  4. Format profile : Base Media / Version 2

  5. Codec ID : mp42 (mp41/mp42/isom)

  6. File size : 3.23 GiB

  7. Duration : 2 h 27 min

  8. Overall bit rate mode : Constant

  9. Overall bit rate : 3 130 kb/s

  10. Encoded date : UTC 2018-01-19 12:47:19

  11. Tagged date : UTC 2018-01-19 14:30:43


  12. Video

  13. ID : 2

  14. Format : AVC

  15. Format/Info : Advanced Video Codec

  16. Format profile : High@L4.1

  17. Format settings : CABAC / 2 Ref Frames

  18. Format settings, CABAC : Yes

  19. Format settings, Reference frames : 2 frames

  20. Codec ID : avc1

  21. Codec ID/Info : Advanced Video Coding

  22. Duration : 2 h 27 min

  23. Bit rate mode : Constant

  24. Bit rate : 3 000 kb/s

  25. Width : 1 920 pixels

  26. Height : 1 080 pixels

  27. Display aspect ratio : 16:9

  28. Frame rate mode : Constant

  29. Frame rate : 25.000 FPS

  30. Standard : PAL

  31. Color space : YUV

  32. Chroma subsampling : 4:2:0

  33. Bit depth : 8 bits

  34. Scan type : MBAFF

  35. Scan type, store method : Interleaved fields

  36. Scan order : Top Field First

  37. Bits/(Pixel*Frame) : 0.058

  38. Stream size : 3.09 GiB (96%)

  39. Language : English

  40. Encoded date : UTC 2018-01-19 12:47:22

  41. Tagged date : UTC 2018-01-19 14:30:43

  42. Color range : Limited

  43. Color primaries : BT.709

  44. Transfer characteristics : BT.709

  45. Matrix coefficients : BT.709

  46. Codec configuration box : avcC


  47. Audio

  48. ID : 1

  49. Format : AAC LC

  50. Format/Info : Advanced Audio Codec Low Complexity

  51. Codec ID : mp4a-40-2

  52. Duration : 2 h 27 min

  53. Bit rate mode : Constant

  54. Bit rate : 128 kb/s

  55. Channel(s) : 2 channels

  56. Channel layout : L R

  57. Sampling rate : 48.0 kHz

  58. Frame rate : 46.875 FPS (1024 SPF)

  59. Compression mode : Lossy

  60. Stream size : 135 MiB (4%)

  61. Language : English

  62. Encoded date : UTC 2018-01-19 12:47:19

  63. Tagged date : UTC 2018-01-19 14:30:43




复制代码

  1. General

  2. Complete name : The Great Military March Forward Liberate the Northwest 1996 WEB-DL 1080p H264 AAC-Dave.mp4

  3. Format : MPEG-4

  4. Format profile : Base Media

  5. Codec ID : isom (isom/avc1)

  6. File size : 2.03 GiB

  7. Duration : 2 h 30 min

  8. Overall bit rate mode : Variable

  9. Overall bit rate : 1 937 kb/s

  10. Encoded date : UTC 2021-05-31 10:32:06

  11. Tagged date : UTC 2021-05-31 10:32:06


  12. Video

  13. ID : 1

  14. Format : AVC

  15. Format/Info : Advanced Video Codec

  16. Format profile : High@L4

  17. Format settings : CABAC / 4 Ref Frames

  18. Format settings, CABAC : Yes

  19. Format settings, Reference frames : 4 frames

  20. Codec ID : avc1

  21. Codec ID/Info : Advanced Video Coding

  22. Duration : 2 h 30 min

  23. Bit rate : 1 800 kb/s

  24. Maximum bit rate : 10.0 Mb/s

  25. Width : 1 920 pixels

  26. Height : 1 080 pixels

  27. Display aspect ratio : 16:9

  28. Frame rate mode : Constant

  29. Frame rate : 30.000 FPS

  30. Color space : YUV

  31. Chroma subsampling : 4:2:0

  32. Bit depth : 8 bits

  33. Scan type : Progressive

  34. Bits/(Pixel*Frame) : 0.029

  35. Stream size : 1.89 GiB (93%)

  36. Writing library : x264 core 152

  37. Encoding settings : cabac=1 / ref=2 / deblock=1:0:0 / analyse=0x3:0x113 / me=hex / subme=4 / psy=1 / psy_rd=1.00:0.00 / mixed_ref=0 / me_range=16 / chroma_me=1 / trellis=1 / 8x8dct=1 / cqm=0 / deadzone=21,11 / fast_pskip=1 / chroma_qp_offset=0 / threads=16 / lookahead_threads=4 / sliced_threads=0 / nr=0 / decimate=1 / interlaced=0 / NTMzNTQ= / bluray_compat=0 / constrained_intra=0 / bframes=3 / b_pyramid=2 / b_adapt=1 / b_bias=0 / direct=1 / weightb=1 / open_gop=0 / weightp=1 / keyint=250 / keyint_min=25 / NTMzNTQ=uuDQuD2mJt9fsCf / scenecut=40 / intra_refresh=0 / rc_lookahead=20 / rc=abr / mbtree=1 / bitrate=1800 / ratetol=1.0 / qcomp=0.60 / qpmin=0 / qpmax=69 / qpstep=4 / NTMzNTQ=LmsMAP37EqsCpk / ip_ratio=1.40 / aq=1:1.00

  38. Encoded date : UTC 2021-05-31 10:32:06

  39. Tagged date : UTC 2021-05-31 10:32:30

  40. Codec configuration box : avcC


  41. Audio

  42. ID : 2

  43. Format : AAC LC

  44. Format/Info : Advanced Audio Codec Low Complexity

  45. Codec ID : mp4a-40-2

  46. Duration : 2 h 30 min

  47. Bit rate mode : Variable

  48. Bit rate : 128 kb/s

  49. Maximum bit rate : 148 kb/s

  50. Channel(s) : 2 channels

  51. Channel layout : L R

  52. Sampling rate : 48.0 kHz

  53. Frame rate : 46.875 FPS (1024 SPF)

  54. Compression mode : Lossy

  55. Stream size : 137 MiB (7%)

  56. Encoded date : UTC 2021-05-31 10:32:25

  57. Tagged date : UTC 2021-05-31 10:32:30




复制代码

  1. General

  2. Complete name : The Great Military March Forward Fight for Nanjing, Shanghai and Hangzhou 1999 WEB-DL 1080p H264 AAC-Dave.mp4

  3. Format : MPEG-4

  4. Format profile : Base Media

  5. Codec ID : isom (isom/avc1)

  6. File size : 1.57 GiB

  7. Duration : 1 h 54 min

  8. Overall bit rate mode : Variable

  9. Overall bit rate : 1 958 kb/s

  10. Encoded date : UTC 2021-05-31 10:18:55

  11. Tagged date : UTC 2021-05-31 10:18:55


  12. Video

  13. ID : 1

  14. Format : AVC

  15. Format/Info : Advanced Video Codec

  16. Format profile : High@L4

  17. Format settings : CABAC / 4 Ref Frames

  18. Format settings, CABAC : Yes

  19. Format settings, Reference frames : 4 frames

  20. Codec ID : avc1

  21. Codec ID/Info : Advanced Video Coding

  22. Duration : 1 h 54 min

  23. Bit rate : 1 800 kb/s

  24. Maximum bit rate : 8 664 kb/s

  25. Width : 1 920 pixels

  26. Height : 1 080 pixels

  27. Display aspect ratio : 16:9

  28. Frame rate mode : Constant

  29. Frame rate : 30.000 FPS

  30. Color space : YUV

  31. Chroma subsampling : 4:2:0

  32. Bit depth : 8 bits

  33. Scan type : Progressive

  34. Bits/(Pixel*Frame) : 0.029

  35. Stream size : 1.44 GiB (92%)

  36. Writing library : x264 core 152

  37. Encoding settings : cabac=1 / ref=2 / deblock=1:0:0 / analyse=0x3:0x113 / me=hex / subme=4 / psy=1 / psy_rd=1.00:0.00 / mixed_ref=0 / me_range=16 / chroma_me=1 / trellis=1 / 8x8dct=1 / cqm=0 / deadzone=21,11 / fast_pskip=1 / chroma_qp_offset=0 / threads=34 / lookahead_threads=8 / sliced_threads=0 / nr=0 / decimate=1 / interlaced=0 / NTMzNTQ= / bluray_compat=0 / constrained_intra=0 / bframes=3 / b_pyramid=2 / b_adapt=1 / b_bias=0 / direct=1 / weightb=1 / open_gop=0 / weightp=1 / keyint=250 / keyint_min=25 / NTMzNTQ=uuDQuD2mJt9fsCf / scenecut=40 / intra_refresh=0 / rc_lookahead=20 / rc=abr / mbtree=1 / bitrate=1800 / ratetol=1.0 / qcomp=0.60 / qpmin=0 / qpmax=69 / qpstep=4 / NTMzNTQ=LmsMAP37EqsCpk / ip_ratio=1.40 / aq=1:1.00

  38. Encoded date : UTC 2021-05-31 10:18:55

  39. Tagged date : UTC 2021-05-31 10:19:13

  40. Codec configuration box : avcC


  41. Audio

  42. ID : 2

  43. Format : AAC LC

  44. Format/Info : Advanced Audio Codec Low Complexity

  45. Codec ID : mp4a-40-2

  46. Duration : 1 h 54 min

  47. Bit rate mode : Variable

  48. Bit rate : 149 kb/s

  49. Maximum bit rate : 166 kb/s

  50. Channel(s) : 2 channels

  51. Channel layout : L R

  52. Sampling rate : 48.0 kHz

  53. Frame rate : 46.875 FPS (1024 SPF)

  54. Compression mode : Lossy

  55. Stream size : 122 MiB (8%)

  56. Encoded date : UTC 2021-05-31 10:19:09

  57. Tagged date : UTC 2021-05-31 10:19:13




复制代码

  1. General

  2. Complete name : The Great Military March Forward Engulf the Southwest 1998 WEB-DL 1080p H264 AAC-Dave.mp4

  3. Format : MPEG-4

  4. Format profile : Base Media

  5. Codec ID : isom (isom/avc1)

  6. File size : 1.99 GiB

  7. Duration : 2 h 25 min

  8. Overall bit rate mode : Variable

  9. Overall bit rate : 1 960 kb/s

  10. Encoded date : UTC 2021-05-31 12:12:35

  11. Tagged date : UTC 2021-05-31 12:12:35


  12. Video

  13. ID : 1

  14. Format : AVC

  15. Format/Info : Advanced Video Codec

  16. Format profile : High@L4

  17. Format settings : CABAC / 4 Ref Frames

  18. Format settings, CABAC : Yes

  19. Format settings, Reference frames : 4 frames

  20. Codec ID : avc1

  21. Codec ID/Info : Advanced Video Coding

  22. Duration : 2 h 25 min

  23. Bit rate : 1 800 kb/s

  24. Maximum bit rate : 8 142 kb/s

  25. Width : 1 920 pixels

  26. Height : 1 080 pixels

  27. Display aspect ratio : 16:9

  28. Frame rate mode : Constant

  29. Frame rate : 30.000 FPS

  30. Color space : YUV

  31. Chroma subsampling : 4:2:0

  32. Bit depth : 8 bits

  33. Scan type : Progressive

  34. Bits/(Pixel*Frame) : 0.029

  35. Stream size : 1.82 GiB (91%)

  36. Writing library : x264 core 152

  37. Encoding settings : cabac=1 / ref=2 / deblock=1:0:0 / analyse=0x3:0x113 / me=hex / subme=4 / psy=1 / psy_rd=1.00:0.00 / mixed_ref=0 / me_range=16 / chroma_me=1 / trellis=1 / 8x8dct=1 / cqm=0 / deadzone=21,11 / fast_pskip=1 / chroma_qp_offset=0 / threads=16 / lookahead_threads=4 / sliced_threads=0 / nr=0 / decimate=1 / interlaced=0 / NTMzNTQ= / bluray_compat=0 / constrained_intra=0 / bframes=3 / b_pyramid=2 / b_adapt=1 / b_bias=0 / direct=1 / weightb=1 / open_gop=0 / weightp=1 / keyint=250 / keyint_min=25 / NTMzNTQ=uuDQuD2mJt9fsCf / scenecut=40 / intra_refresh=0 / rc_lookahead=20 / rc=abr / mbtree=1 / bitrate=1800 / ratetol=1.0 / qcomp=0.60 / qpmin=0 / qpmax=69 / qpstep=4 / NTMzNTQ=LmsMAP37EqsCpk / ip_ratio=1.40 / aq=1:1.00

  38. Encoded date : UTC 2021-05-31 12:12:35

  39. Tagged date : UTC 2021-05-31 12:12:58

  40. Codec configuration box : avcC


  41. Audio

  42. ID : 2

  43. Format : AAC LC

  44. Format/Info : Advanced Audio Codec Low Complexity

  45. Codec ID : mp4a-40-2

  46. Duration : 2 h 25 min

  47. Bit rate mode : Variable

  48. Bit rate : 163 kb/s

  49. Maximum bit rate : 170 kb/s

  50. Channel(s) : 2 channels

  51. Channel layout : L R

  52. Sampling rate : 48.0 kHz

  53. Frame rate : 46.875 FPS (1024 SPF)

  54. Compression mode : Lossy

  55. Stream size : 169 MiB (8%)

  56. Encoded date : UTC 2021-05-31 12:12:52

  57. Tagged date : UTC 2021-05-31 12:12:58



文件下载


除非特别注明,本文『大进军四部曲打包[国语音轨].The.Great.Military.March.Forward.Tetralogy.1996-1999.WEB-DL.1080p.迅雷下载 8.81G』来源于互联网机器人自动抓取,非本站原创。 浮游电影网不对本文拥有版权,如有侵犯,请联系邮箱:fuyouu#yandex.com[#换成@]投诉。我们会在15个工作日内删除。 但烦请转载时请标明出处:“本文转载于『浮游电影网』,原文地址:https://www.fuyouu.com/12824.html

评论吧骚年!

发表你的见解   

昵称*

E-mail*(建议输入,以便收到博主回复的提示邮件)

验证码*

您可以使用eMule或eMule Mod(Windows)、aMule(Win、Linux、Mac)等软件下载eD2k链接。。
eMule收藏集(.emulecollection)文件是您选中的所有链接的列表文件。eMule可以直接下载它们。
按住SHIFT键选择可以选中多个选择框。
可用文件名和大小选择器来选择文件。
文件名选择器帮您根据文件名称或后缀来选择文件。不分大小写。
符号使用:
和:空格( )、+
不包含:-
或:|
转义:一对英文引号("");
匹配开头:^
匹配结尾:$
例如:
选中所有名称中包含有“eMule”或“0.49c”字眼,但不包含有“exe”字眼的:emule|0.49c -exe
选中所有名称的开头是“eMule”,结尾是“0.49c”的:^emule 0.49c$
选中所有名称中带有“eMule 0.49c”的(必须是“eMule 0.49c”,中间没有别的字符,不能是“eMule fake 0.49c”),需要转义:"emule 0.49c"
大小选择器帮您根据文件大小选择文件。