当前位置: 首页 >> 日韩电影 >> 大决战!超奥特曼八兄弟[粤语音轨/中文字幕].Ultraman.8.Brother.2008.1080p.迅雷下载 7.43GB >> 正文

大决战!超奥特曼八兄弟[粤语音轨/中文字幕].Ultraman.8.Brother.2008.1080p.迅雷下载 7.43GB

2021年07月01日 15:01:00     电影发布:来源于网络     电影分类:日韩电影     评论(0)    

大决战!超奥特曼八兄弟[粤语音轨/中文字幕].Ultraman.8.Brother.2008.1080p.迅雷下载 7.43GB 家庭片 科幻片 奇幻片 冒险片 剧情片 日韩电影  第1张

◎译 名 大决战!超奥特曼八兄弟 / 大决战!超人8兄弟(港) / 大决战!超奥特8兄弟 / Great Decisive Battle! The Super 8 Ultra Brothers / Superior Ultraman 8 Brothers / Daikessen! Ch? urutora 8 ky?dai

◎片 名 大決戦!超ウルトラ8兄弟

◎年 代 2008

◎产 地 日本

◎类 别 剧情 / 科幻 / 家庭 / 奇幻 / 冒险

◎语 言 日语

◎上映日期 2008-09-13

◎IMDb链接 https://www.imdb.com/title/tt1291119/

◎豆瓣评分 8.6/10 (10423人评价)

◎豆瓣链接 https://movie.douban.com/subject/3217099/

◎片 长 98分钟

◎导 演 八木毅 Takeshi Yagi (id:1339616)

◎演 员 长野博 Hiroshi Nagano (id:1030049)

吉冈毅志 Takeshi Yoshioka (id:1034669)

黑部进 Susumu Kurobe (id:1028776)

森次晃嗣 K?ji Moritsugu (id:1033968)

吉本多香美 Takami Yoshimoto (id:1029249)

菱美百合子 Yuriko Hishimi (id:1019909)

石坂浩二 K?ji Ishizaka (id:1109420)

樱井浩子 Hiroko Sakurai (id:1033221)

团时郎 Jiro Dan (id:1077557)

星光子 Mitsuko Hoshi (id:1338149)

高峰圭二 Keiji Takamine (id:1313688)

榊原留美 Rumi Sakakibara (id:1034227)

鹤野刚士 Takeshi Tsuruno (id:1314713)

影丸茂樹 Shigeki Kagemaru (id:1104644)

佐原健二 Kenji Sahara (id:1048486)

松下惠 Megumi Matsushita (id:1440507)

满田穧 Kazuho Mitsuta (id:1337723)

王苏 Su Wang (id:1444174)

河岛顺子 Kawashima Junko (id:1454833)

桥本来留美 Kurumi Hashimoto (id:1458007)

五十岚隼士 Shunji Igarashi (id:1275252)

齐藤理沙 Risa Sait? (id:1316565)

桥本爱 Ai Hashimoto (id:1326914)

大泷明利 Akitoshi Ootaki (id:1349306)

石桥桂 Kei Ishibashi (id:1317229)

高野八诚 Hassei Takano (id:1015479)

石田裕加里 Yukari Ishida (id:1173682)

小野寺丈 Jou Onodera (id:1316567)

加濑尊朗 Takao Kase (id:1316566)

二瓶正也 Masanari Nihei (id:1038692)

小川光树 Kouki Ogawa (id:1275758)

荒木博斗 Hiroto Araki (id:1312790)

长泽奈央 Nao Nagasawa (id:1268875)

伴杏里 Anri Ban (id:1052474)

川地民夫 Tamio Kawaji (id:1012974)

涩谷浩康 Hiroyasu Shibuya (id:1455243)

圆谷一夫 Kazuo Tsuburaya (id:1337561)

佐桥俊彦 Toshihiko Sahashi (id:1043698)

◎标 签 奥特曼 / 日本 / 大决战!超奥特8兄弟 / 科幻 / 童年 / 剧场版 / 特摄 / 日本电影

◎简 介

大古是一个憧憬着电视节目《奥特曼》中的奥特曼形象,梦想是有朝一日能成为宇宙船船长的平凡少年。

现在还在逐渐成长中,目前只是横浜市观光课的一名普通公务员。

没错,本作的舞台是和之前的昭和·平成系列毫无联系,

平行存在于现实世界中的横浜。

幼年时憧憬着成为职业棒球选手的飞鸟,现在是横浜体育场的一名球童。

阿良也作为飞鸟的同事而不断支持着他。

把“开发出大古梦想所能够驾驶的飞船”作为理想目标的我梦,

目前和敦子一同作为横浜MaliTime博物馆的实习生而奋斗着。

就在同时,为追赶超越了时间和空间的格斯拉王,梦比优斯奥特曼出现在了横浜港。

他是唯一一个知道降临在我们世界的这一切的引导性角色。

「让7名勇者再次觉醒、并一同去打倒侵略者」

出现在梦比优斯面前说着这么番话的穿着红鞋的少女究竟是?

随着格斯拉王的出现、在山下码头也同样出现了庞敦王。

那是曾一度打败赛...

  1. General

  2. Unique ID : 124735855301476569695560928055379776367 (0x5DD7407BA05136A4FB13E7E55392536F)

  3. Complete name : Ultraman.8.Brother.2008.1080p.BluRay.DTS.2Audio.x265-10bit-HDS.mkv

  4. Format : Matroska

  5. Format version : Version 4

  6. File size : 7.42 GiB

  7. Duration : 1 h 37 min

  8. Overall bit rate : 10.9 Mb/s

  9. Movie name : Ultraman 8 Brother 2008 1080p BluRay DTS 2Audio x265-10bit-HDS

  10. Encoded date : UTC 2021-06-29 12:28:41

  11. Writing application : mkvmerge v38.0.0 ('The Silent Type') 64-bit

  12. Writing library : libebml v1.3.9 + libmatroska v1.5.2


  13. Video

  14. ID : 1

  15. Format : HEVC

  16. Format/Info : High Efficiency Video Coding

  17. Format profile : Main 10@L5.1@High

  18. Codec ID : V_MPEGH/ISO/HEVC

  19. Duration : 1 h 37 min

  20. Bit rate : 7 788 kb/s

  21. Width : 1 916 pixels

  22. Height : 1 080 pixels

  23. Display aspect ratio : 16:9

  24. Frame rate mode : Constant

  25. Frame rate : 23.976 (24000/1001/53354) FPS

  26. Color space : YUV

  27. Chroma subsampling : 4:2:0

  28. Bit depth : 10 bits

  29. Bits/(Pixel*Frame) : 0.157

  30. Stream size : 5.32 GiB (72%)

  31. Title : @HDSky

  32. Writing library : x265 - H.265/HEVC codec

  33. Default : Yes

  34. Forced : No


  35. Audio #1

  36. ID : 2

  37. Format : DTS

  38. Format/Info : Digital Theater Systems

  39. Codec ID : A_DTS

  40. Duration : 1 h 37 min

  41. Bit rate mode : Constant

  42. Bit rate : 1 509 kb/s

  43. Channel(s) : 6 channels

  44. Channel layout : C L R Ls Rs LFE

  45. Sampling rate : 48.0 kHz

  46. Frame rate : 93.750 FPS (512 SPF)

  47. Bit depth : 24 bits

  48. Compression mode : Lossy

  49. Stream size : 1.03 GiB (14%)

  50. Title : Japanese

  51. Language : Japanese

  52. Default : Yes

  53. Forced : No


  54. Audio #2

  55. ID : 3

  56. Format : DTS

  57. Format/Info : Digital Theater Systems

  58. Codec ID : A_DTS

  59. Duration : 1 h 37 min

  60. Bit rate mode : Constant

  61. Bit rate : 1 509 kb/s

  62. Channel(s) : 6 channels

  63. Channel layout : C L R Ls Rs LFE

  64. Sampling rate : 48.0 kHz

  65. Frame rate : 93.750 FPS (512 SPF)

  66. Bit depth : 24 bits

  67. Compression mode : Lossy

  68. Stream size : 1.03 GiB (14%)

  69. Title : Cantonese

  70. Language : Chinese

  71. Default : No

  72. Forced : No


  73. Text #1

  74. ID : 4

  75. Format : PGS

  76. Muxing mode : zlib

  77. Codec ID : S_HDMV/PGS

  78. Codec ID/Info : Picture based subtitle format used on BDs/HD-DVDs

  79. Duration : 1 h 36 min

  80. Bit rate : 41.9 kb/s

  81. Count of elements : 2250

  82. Stream size : 28.8 MiB (0%)

  83. Title : CHS

  84. Language : Chinese

  85. Default : Yes

  86. Forced : No


  87. Text #2

  88. ID : 5

  89. Format : PGS

  90. Muxing mode : zlib

  91. Codec ID : S_HDMV/PGS

  92. Codec ID/Info : Picture based subtitle format used on BDs/HD-DVDs

  93. Duration : 1 h 36 min

  94. Bit rate : 42.0 kb/s

  95. Count of elements : 2250

  96. Stream size : 28.8 MiB (0%)

  97. Title : CHT

  98. Language : Chinese

  99. Default : No

  100. Forced : No


  101. Text #3

  102. ID : 6

  103. Format : PGS

  104. Muxing mode : zlib

  105. Codec ID : S_HDMV/PGS

  106. Codec ID/Info : Picture based subtitle format used on BDs/HD-DVDs

  107. Duration : 1 h 36 min

  108. Bit rate : 24.8 kb/s

  109. Count of elements : 1679

  110. Stream size : 17.0 MiB (0%)

  111. Title : CHT

  112. Language : Chinese

  113. Default : No

  114. Forced : No


  115. Menu

  116. 00:00:00.000 : en:Chapter 01

  117. 00:07:06.426 : en:Chapter 02

  118. 00:14:50.932 : en:Chapter 03

  119. 00:22:22.508 : en:Chapter 04

  120. 00:29:04.159 : en:Chapter 05

  121. 00:34:09.881 : en:Chapter 06

  122. 00:47:13.414 : en:Chapter 07

  123. 00:54:48.535 : en:Chapter 08

  124. 01:07:54.696 : en:Chapter 09

  125. 01:14:20.998 : en:Chapter 10

  126. 01:22:30.946 : en:Chapter 11

  127. 01:32:46.394 : en:Chapter 12



文件下载


除非特别注明,本文『大决战!超奥特曼八兄弟[粤语音轨/中文字幕].Ultraman.8.Brother.2008.1080p.迅雷下载 7.43GB』来源于互联网机器人自动抓取,非本站原创。 浮游电影网不对本文拥有版权,如有侵犯,请联系邮箱:fuyouu#yandex.com[#换成@]投诉。我们会在15个工作日内删除。 但烦请转载时请标明出处:“本文转载于『浮游电影网』,原文地址:https://www.fuyouu.com/12808.html

评论吧骚年!

发表你的见解   

昵称*

E-mail*(建议输入,以便收到博主回复的提示邮件)

验证码*

您可以使用eMule或eMule Mod(Windows)、aMule(Win、Linux、Mac)等软件下载eD2k链接。。
eMule收藏集(.emulecollection)文件是您选中的所有链接的列表文件。eMule可以直接下载它们。
按住SHIFT键选择可以选中多个选择框。
可用文件名和大小选择器来选择文件。
文件名选择器帮您根据文件名称或后缀来选择文件。不分大小写。
符号使用:
和:空格( )、+
不包含:-
或:|
转义:一对英文引号("");
匹配开头:^
匹配结尾:$
例如:
选中所有名称中包含有“eMule”或“0.49c”字眼,但不包含有“exe”字眼的:emule|0.49c -exe
选中所有名称的开头是“eMule”,结尾是“0.49c”的:^emule 0.49c$
选中所有名称中带有“eMule 0.49c”的(必须是“eMule 0.49c”,中间没有别的字符,不能是“eMule fake 0.49c”),需要转义:"emule 0.49c"
大小选择器帮您根据文件大小选择文件。