当前位置: 首页 >> 欧美电影 >> 月光光心慌慌[繁体字幕].Halloween.2018.1080p.迅雷下载 12.61GB >> 正文

月光光心慌慌[繁体字幕].Halloween.2018.1080p.迅雷下载 12.61GB

2021年07月01日 14:56:53     电影发布:来源于网络     电影分类:欧美电影     评论(0)    

月光光心慌慌[繁体字幕].Halloween.2018.1080p.迅雷下载 12.61GB 恐怖片 惊悚片 欧美电影  第1张

◎译 名 月光光心慌慌 / 月光光新慌慌(台) / 万圣节归来 / 万圣节11 / Halloween 3-D / Halloween Returns / Halloween III

◎片 名 Halloween

◎年 代 2018

◎产 地 美国 / 英国

◎类 别 惊悚 / 恐怖

◎语 言 英语

◎上映日期 2018-09-08(多伦多电影节) / 2018-10-19(美国)

◎IMDb链接 https://www.imdb.com/title/tt1502407/

◎豆瓣评分 5.9/10 (20813人评价)

◎豆瓣链接 https://movie.douban.com/subject/4017146/

◎片 长 106分钟

◎导 演 大卫·戈登·格林 David Gordon Green (id:1000217)

◎编 剧 杰夫·弗拉德利 Jeff Fradley (id:1405823)

丹尼·麦克布莱德 Danny McBride (id:1013797)

大卫·戈登·格林 David Gordon Green (id:1000217)

约翰·卡朋特 John Carpenter (id:1013792)

黛布拉·希尔 Debra Hill (id:1041607)

◎演 员 杰米·李·柯蒂斯 Jamie Lee Curtis (id:1041127)

朱迪·格雷尔 Judy Greer (id:1009256)

安迪·马蒂切克 Andi Matichak (id:1405822)

詹姆斯·裘德·柯特尼 James Jude Courtney (id:1405821)

尼克·卡斯特尔 Nick Castle (id:1068970)

哈鲁克·比尔根纳尔 Haluk Bilginer (id:1065352)

威尔·帕顿 Will Patton (id:1019066)

里安·里斯 Rhian Rees (id:1405820)

杰佛逊·豪尔 Jefferson Hall (id:1343261)

托比·哈斯 Toby Huss (id:1108969)

维吉尼亚·加德纳 Virginia Gardner (id:1327293)

迪伦·阿诺德 Dylan Arnold (id:1405819)

迈尔斯·罗宾斯 Miles Robbins (id:1144456)

德鲁·谢伊德 Drew Scheid (id:1405818)

吉布瑞尔·南谭布 Jibrail Nantambu (id:1405817)

迈克尔·哈瑞蒂 Michael 'Mick' Harrity (id:1405816)

马修·安德森 Matthew Anderson (id:1405815)

奥马尔·J·多尔西 Omar J. Dorsey (id:1079452)

克里斯托弗·艾伦·尼尔森 Christopher Allen Nelson (id:1369628)

P·J·索尔丝 P.J. Soles (id:1010656)

桑迪·约翰逊 Sandy Johnson (id:1009823)

乔恩·埃里克·海克瑟姆 Jon-Erik Hexum (id:1040759)

梅诺·佩卢斯 Meeno Peluce (id:1130273)

杰瑞德·莫泽 Jared Moser (id:1392761)

罗布·尼特 Rob Niter (id:1380608)

文斯·马蒂斯 Vince Mattis (id:1407811)

汉娜·拉塞尔 Hannah Russell (id:1447215)

约翰·卡朋特 John Carpenter (id:1013792)

大卫·戈登·格林 David Gordon Green (id:1000217)

约翰·卡朋特 John Carpenter (id:1013792)

迈克尔·西蒙兹 Michael Simmonds (id:1443469)

艾米丽·冈肖尔 Emily Gunshor (id:1444354)

◎标 签 恐怖 / 惊悚 / 美国 / 2018 / 万圣节系列 / 恐怖片 / 犯罪 / 悬疑

◎简 介

在万圣节前夜,杀人狂迈克尔·麦尔斯逃走了,开始前往伊利诺伊州的哈登菲尔德,这是他最原始的屠杀地。一直负责治疗迈克尔·麦尔斯的精神病专家兰比尔·萨坦博士,警长弗兰克·霍金斯在疯狂寻找迈克尔·麦尔斯的下落,后者继续着他的残杀,并无情地接近着上次屠杀中唯一的幸存者劳瑞。劳瑞死里逃生所带来的创伤与压力,使她在精神上伤痕累累并开始疑神疑鬼,这也导致女儿凯伦与她渐渐疏远。

◎获奖情况 (共3项)

第43届多伦多国际电影节 (2018)

观众选择奖 午夜疯狂单元(提名)

第28届MTV电影奖 (2019)

MTV电影奖 最佳惊恐戏表演(提名)

└──里安·里斯 (id:1405820)

第24届美国评论家选择电影奖 (2019)

最佳科幻/恐怖片(提名)

  1. General

  2. Unique ID : 102991350853373112310102690512589379595 (0x4D7B69A439DCF5E9D6500C1E5AC9580B)

  3. Complete name : Halloween.2018.1080p.BluRay.x264.DTS-PTH.mkv

  4. Format : Matroska

  5. Format version : Version 4

  6. File size : 12.6 GiB

  7. Duration : 1 h 45 min

  8. Overall bit rate : 17.1 Mb/s

  9. Encoded date : UTC 2021-06-29 04:07:46

  10. Writing application : mkvmerge v58.0.0 ('Supper's Ready') 64-bit

  11. Writing library : libebml v1.4.2 + libmatroska v1.6.4


  12. Video

  13. ID : 1

  14. Format : AVC

  15. Format/Info : Advanced Video Codec

  16. Format profile : High@L4.1

  17. Format settings : CABAC / 4 Ref Frames

  18. Format settings, CABAC : Yes

  19. Format settings, Reference frames : 4 frames

  20. Codec ID : V_MPEG4/ISO/AVC

  21. Duration : 1 h 45 min

  22. Bit rate : 15.5 Mb/s

  23. Width : 1 920 pixels

  24. Height : 804 pixels

  25. Display aspect ratio : 2.40:1

  26. Frame rate mode : Constant

  27. Frame rate : 23.976 (24000/1001/53354) FPS

  28. Color space : YUV

  29. Chroma subsampling : 4:2:0

  30. Bit depth : 8 bits

  31. Scan type : Progressive

  32. Bits/(Pixel*Frame) : 0.418

  33. Stream size : 11.4 GiB (91%)

  34. Writing library : x264 core 163 r3059+79M f2a8266 t_mod_test_xavc [(8 & 10)-bit@all X86_64]

  35. Encoding settings : cabac=1 / ref=4 / deblock=1:-3:-3 / analyse=0x3:0x133 / me=umh / subme=11 / psy=1 / fade_compensate=0.00 / psy_rd=1.00:0.00 / mixed_ref=1 / me_range=48 / chroma_me=1 / trellis=2 / 8x8dct=1 / cqm=0 / deadzone=21,11 / fast_pskip=0 / chroma_qp_offset=-3 / threads=24 / lookahead_threads=6 / sliced_threads=0 / nr=0 / decimate=0 / interlaced=0 / NTMzNTQ= / bluray_compat=0 / constrained_intra=0 / fgo=0 / bframes=11 / b_pyramid=2 / b_adapt=2 / b_bias=0 / direct=3 / weightb=1 / open_gop=0 / weightp=2 / keyint=240 / keyint_min=1 / NTMzNTQ=uuDQuD2mJt9fsCf / scenecut=40 / intra_refresh=0 / rc_lookahead=72 / rc=crf / mbtree=0 / crf=16.5000 / qcomp=0.60 / qpmin=0:0:0 / qpmax=69:69:69 / qpstep=4 / vbv_maxrate=62500 / vbv_bufsize=78125 / crf_max=0.0 / nal_hrd=none / filler=0 / NTMzNTQ=LmsMAP37EqsCpk / ip_ratio=1.40 / pb_ratio=1.30 / aq=3:0.80 / aq-sensitivity=10.00 / aq-factor=1.00:1.00:1.00 / aq2=0 / aq3=0

  36. Language : English

  37. Default : Yes

  38. Forced : No


  39. Audio

  40. ID : 2

  41. ID in the original source medium : 4352 (0x1100)

  42. Format : DTS

  43. Format/Info : Digital Theater Systems

  44. Codec ID : A_DTS

  45. Duration : 1 h 45 min

  46. Bit rate mode : Constant

  47. Bit rate : 1 509 kb/s

  48. Channel(s) : 6 channels

  49. Channel layout : C L R Ls Rs LFE

  50. Sampling rate : 48.0 kHz

  51. Frame rate : 93.750 FPS (512 SPF)

  52. Bit depth : 24 bits

  53. Compression mode : Lossy

  54. Stream size : 1.12 GiB (9%)

  55. Language : English

  56. Default : Yes

  57. Forced : No

  58. Original source medium : Blu-ray


  59. Text #1

  60. ID : 3

  61. ID in the original source medium : 4613 (0x1205)

  62. Format : PGS

  63. Muxing mode : zlib

  64. Codec ID : S_HDMV/PGS

  65. Codec ID/Info : Picture based subtitle format used on BDs/HD-DVDs

  66. Duration : 1 h 38 min

  67. Bit rate : 48.2 kb/s

  68. Count of elements : 1668

  69. Stream size : 34.0 MiB (0%)

  70. Title : 简英

  71. Language : Chinese

  72. Default : Yes

  73. Forced : No

  74. Original source medium : Blu-ray


  75. Text #2

  76. ID : 4

  77. ID in the original source medium : 4614 (0x1206)

  78. Format : PGS

  79. Muxing mode : zlib

  80. Codec ID : S_HDMV/PGS

  81. Codec ID/Info : Picture based subtitle format used on BDs/HD-DVDs

  82. Duration : 1 h 38 min

  83. Bit rate : 48.5 kb/s

  84. Count of elements : 1668

  85. Stream size : 34.2 MiB (0%)

  86. Title : 繁英

  87. Language : Chinese

  88. Default : No

  89. Forced : No

  90. Original source medium : Blu-ray


  91. Text #3

  92. ID : 5

  93. ID in the original source medium : 4615 (0x1207)

  94. Format : PGS

  95. Muxing mode : zlib

  96. Codec ID : S_HDMV/PGS

  97. Codec ID/Info : Picture based subtitle format used on BDs/HD-DVDs

  98. Duration : 1 h 38 min

  99. Bit rate : 27.7 kb/s

  100. Count of elements : 1663

  101. Stream size : 19.6 MiB (0%)

  102. Title : 简中

  103. Language : Chinese

  104. Default : No

  105. Forced : No

  106. Original source medium : Blu-ray


  107. Text #4

  108. ID : 6

  109. ID in the original source medium : 4616 (0x1208)

  110. Format : PGS

  111. Muxing mode : zlib

  112. Codec ID : S_HDMV/PGS

  113. Codec ID/Info : Picture based subtitle format used on BDs/HD-DVDs

  114. Duration : 1 h 38 min

  115. Bit rate : 28.1 kb/s

  116. Count of elements : 1663

  117. Stream size : 19.8 MiB (0%)

  118. Title : 繁中

  119. Language : Chinese

  120. Default : No

  121. Forced : No

  122. Original source medium : Blu-ray


  123. Text #5

  124. ID : 7

  125. ID in the original source medium : 4608 (0x1200)

  126. Format : PGS

  127. Muxing mode : zlib

  128. Codec ID : S_HDMV/PGS

  129. Codec ID/Info : Picture based subtitle format used on BDs/HD-DVDs

  130. Duration : 1 h 44 min

  131. Bit rate : 42.8 kb/s

  132. Count of elements : 3064

  133. Stream size : 32.0 MiB (0%)

  134. Title : 英语

  135. Language : English

  136. Default : No

  137. Forced : No

  138. Original source medium : Blu-ray


  139. Menu

  140. 00:00:00.000 : 第 01 章

  141. 00:08:42.522 : 第 02 章

  142. 00:14:26.949 : 第 03 章

  143. 00:20:46.995 : 第 04 章

  144. 00:23:17.854 : 第 05 章

  145. 00:27:45.080 : 第 06 章

  146. 00:32:55.723 : 第 07 章

  147. 00:40:51.365 : 第 08 章

  148. 00:44:41.053 : 第 09 章

  149. 00:48:26.403 : 第 10 章

  150. 00:53:26.453 : 第 11 章

  151. 00:59:18.596 : 第 12 章

  152. 01:03:22.340 : 第 13 章

  153. 01:07:29.628 : 第 14 章

  154. 01:14:46.523 : 第 15 章

  155. 01:18:10.560 : 第 16 章

  156. 01:22:04.836 : 第 17 章

  157. 01:30:09.904 : 第 18 章

  158. 01:35:33.394 : 第 19 章

  159. 01:40:41.493 : 第 20 章




文件下载


除非特别注明,本文『月光光心慌慌[繁体字幕].Halloween.2018.1080p.迅雷下载 12.61GB』来源于互联网机器人自动抓取,非本站原创。 浮游电影网不对本文拥有版权,如有侵犯,请联系邮箱:fuyouu#yandex.com[#换成@]投诉。我们会在15个工作日内删除。 但烦请转载时请标明出处:“本文转载于『浮游电影网』,原文地址:https://www.fuyouu.com/12806.html

评论吧骚年!

发表你的见解   

昵称*

E-mail*(建议输入,以便收到博主回复的提示邮件)

验证码*

您可以使用eMule或eMule Mod(Windows)、aMule(Win、Linux、Mac)等软件下载eD2k链接。。
eMule收藏集(.emulecollection)文件是您选中的所有链接的列表文件。eMule可以直接下载它们。
按住SHIFT键选择可以选中多个选择框。
可用文件名和大小选择器来选择文件。
文件名选择器帮您根据文件名称或后缀来选择文件。不分大小写。
符号使用:
和:空格( )、+
不包含:-
或:|
转义:一对英文引号("");
匹配开头:^
匹配结尾:$
例如:
选中所有名称中包含有“eMule”或“0.49c”字眼,但不包含有“exe”字眼的:emule|0.49c -exe
选中所有名称的开头是“eMule”,结尾是“0.49c”的:^emule 0.49c$
选中所有名称中带有“eMule 0.49c”的(必须是“eMule 0.49c”,中间没有别的字符,不能是“eMule fake 0.49c”),需要转义:"emule 0.49c"
大小选择器帮您根据文件大小选择文件。