当前位置: 首页 >> 港台电影 >> 天与地[粤语音轨/中文字幕].Tian.Di.1994.1080p.迅雷下载 10.63GB >> 正文

天与地[粤语音轨/中文字幕].Tian.Di.1994.1080p.迅雷下载 10.63GB

2021年07月01日 14:40:33     电影发布:来源于网络     电影分类:港台电影     评论(0)    

天与地[粤语音轨/中文字幕].Tian.Di.1994.1080p.迅雷下载 10.63GB 剧情片 港台电影  第1张

◎译 名 天与地 / Tian Di

◎片 名 天與地

◎年 代 1994

◎产 地 中国香港 / 美国

◎类 别 剧情

◎语 言 粤语 / 汉语普通话

◎上映日期 1994-07-21(中国香港)

◎IMDb链接 https://www.imdb.com/title/tt0111423/

◎豆瓣评分 7.2/10 (6024人评价)

◎豆瓣链接 https://movie.douban.com/subject/1305829/

◎片 长 104分钟

◎导 演 黎大炜 David Lai (id:1289258)

◎编 剧 陈子慧 Che Wei Chan (id:1322433)

◎演 员 刘德华 Andy Lau (id:1054424)

刘松仁 Damian Lau (id:1028689)

陈少霞 Cherie Chan (id:1275141)

顾宝明 Pao-Ming Ku (id:1285575)

金士杰 Shih-Chieh King (id:1275482)

俞飞鸿 Faye Yu (id:1014618)

刘德华 Andy Lau (id:1054424)

林敏怡 Man Yee Lam (id:1289301)

李屏宾 Mark Lee Ping Bing (id:1274482)

樊恭荣 Kung Wing Fan (id:1283421)

雷楚雄 Bill Lui (id:1290436)

◎标 签 刘德华 / 香港 / 香港电影 / 动作 / 犯罪 / 1994 / 刘松仁 / 警匪

◎简 介

得一笔奖学金资助,张一鹏(刘德华)获得去法国留学深造的机会,学成归国后,他被任命为上海市禁烟(鸦片)行动的第一专员。

张在法经西方文化与价值观熏陶,十分书生意气,刚携妻子(陈少霞)来到上海,便展开一系列动作,不知中国与西方国家国情有别,难有健全的法律体系及社会秩序:警察署长倪坤(顾宝明)和大毒枭戴济民(刘松仁)是拜把兄弟,两人一起控制着包括贩卖鸦片在内的上海所有的非法交易,见数次向张行贿无果,他们发毒誓要让张生不如死。

◎获奖情况 (共1项)

第14届香港电影金像奖 (1995)

最佳原创电影歌曲(提名)

└──刘德华 (id:1054424)

  1. General

  2. Unique ID : 145668357235601504820563317168108605600 (0x6D96B4826A3A1D2544FBE2987D4E10A0)

  3. Complete name : Tian.Di.1994.1080p.BluRay.x264.DTS.2Audio-PTH.mkv

  4. Format : Matroska

  5. Format version : Version 4

  6. File size : 10.6 GiB

  7. Duration : 1 h 44 min

  8. Overall bit rate : 14.6 Mb/s

  9. Movie name : Tian Di 1994

  10. Encoded date : UTC 2021-06-28 05:10:07

  11. Writing application : mkvmerge v58.0.0 ('Supper's Ready') 64-bit

  12. Writing library : libebml v1.4.2 + libmatroska v1.6.4

  13. Cover : Yes

  14. Attachments : cover.jpg


  15. Video

  16. ID : 1

  17. Format : AVC

  18. Format/Info : Advanced Video Codec

  19. Format profile : High@L4.1

  20. Format settings : CABAC / 4 Ref Frames

  21. Format settings, CABAC : Yes

  22. Format settings, Reference frames : 4 frames

  23. Codec ID : V_MPEG4/ISO/AVC

  24. Duration : 1 h 44 min

  25. Bit rate : 12.7 Mb/s

  26. Width : 1 920 pixels

  27. Height : 1 080 pixels

  28. Display aspect ratio : 16:9

  29. Frame rate mode : Constant

  30. Frame rate : 24.000 FPS

  31. Color space : YUV

  32. Chroma subsampling : 4:2:0

  33. Bit depth : 8 bits

  34. Scan type : Progressive

  35. Bits/(Pixel*Frame) : 0.255

  36. Stream size : 9.23 GiB (87%)

  37. Writing library : x264 core 163 r3059+79M f2a8266 t_mod_test_xavc [(8 & 10)-bit@all X86_64]

  38. Encoding settings : cabac=1 / ref=4 / deblock=1:-3:-3 / analyse=0x3:0x133 / me=umh / subme=11 / psy=1 / fade_compensate=0.00 / psy_rd=1.00:0.00 / mixed_ref=1 / me_range=48 / chroma_me=1 / trellis=2 / 8x8dct=1 / cqm=0 / deadzone=21,11 / fast_pskip=0 / chroma_qp_offset=-3 / threads=34 / lookahead_threads=8 / sliced_threads=0 / nr=0 / decimate=0 / interlaced=0 / NTMzNTQ= / bluray_compat=0 / constrained_intra=0 / fgo=0 / bframes=11 / b_pyramid=2 / b_adapt=2 / b_bias=0 / direct=3 / weightb=1 / open_gop=0 / weightp=2 / keyint=240 / keyint_min=1 / NTMzNTQ=uuDQuD2mJt9fsCf / scenecut=40 / intra_refresh=0 / rc_lookahead=72 / rc=crf / mbtree=0 / crf=20.0000 / qcomp=0.60 / qpmin=0:0:0 / qpmax=69:69:69 / qpstep=4 / vbv_maxrate=62500 / vbv_bufsize=78125 / crf_max=0.0 / nal_hrd=none / filler=0 / NTMzNTQ=LmsMAP37EqsCpk / ip_ratio=1.40 / pb_ratio=1.30 / aq=3:0.70 / aq-sensitivity=10.00 / aq-factor=1.00:1.00:1.00 / aq2=0 / aq3=0

  39. Language : English

  40. Default : Yes

  41. Forced : No


  42. Audio #1

  43. ID : 2

  44. Format : DTS

  45. Format/Info : Digital Theater Systems

  46. Codec ID : A_DTS

  47. Duration : 1 h 44 min

  48. Bit rate mode : Constant

  49. Bit rate : 1 510 kb/s

  50. Channel(s) : 6 channels

  51. Channel layout : C L R Ls Rs LFE

  52. Sampling rate : 48.0 kHz

  53. Frame rate : 93.750 FPS (512 SPF)

  54. Bit depth : 24 bits

  55. Compression mode : Lossy

  56. Stream size : 1.10 GiB (10%)

  57. Title : Cantonese

  58. Language : English

  59. Default : Yes

  60. Forced : No


  61. Audio #2

  62. ID : 3

  63. ID in the original source medium : 4353 (0x1101)

  64. Format : AC-3

  65. Format/Info : Audio Coding 3

  66. Commercial name : Dolby Digital

  67. Codec ID : A_AC3

  68. Duration : 1 h 44 min

  69. Bit rate mode : Constant

  70. Bit rate : 384 kb/s

  71. Channel(s) : 2 channels

  72. Channel layout : L R

  73. Sampling rate : 48.0 kHz

  74. Frame rate : 31.250 FPS (1536 SPF)

  75. Compression mode : Lossy

  76. Stream size : 286 MiB (3%)

  77. Title : Mandarin

  78. Language : Chinese

  79. Service kind : Complete Main

  80. Default : Yes

  81. Forced : No

  82. Original source medium : Blu-ray


  83. Text #1

  84. ID : 4

  85. ID in the original source medium : 4609 (0x1201)

  86. Format : PGS

  87. Muxing mode : zlib

  88. Codec ID : S_HDMV/PGS

  89. Codec ID/Info : Picture based subtitle format used on BDs/HD-DVDs

  90. Duration : 1 h 40 min

  91. Bit rate : 27.7 kb/s

  92. Count of elements : 2132

  93. Stream size : 20.0 MiB (0%)

  94. Title : chs

  95. Language : Chinese

  96. Default : Yes

  97. Forced : No

  98. Original source medium : Blu-ray


  99. Text #2

  100. ID : 5

  101. ID in the original source medium : 4608 (0x1200)

  102. Format : PGS

  103. Muxing mode : zlib

  104. Codec ID : S_HDMV/PGS

  105. Codec ID/Info : Picture based subtitle format used on BDs/HD-DVDs

  106. Duration : 1 h 40 min

  107. Bit rate : 28.2 kb/s

  108. Count of elements : 2130

  109. Stream size : 20.3 MiB (0%)

  110. Title : cht

  111. Language : Chinese

  112. Default : Yes

  113. Forced : No

  114. Original source medium : Blu-ray


  115. Text #3

  116. ID : 6

  117. ID in the original source medium : 4610 (0x1202)

  118. Format : PGS

  119. Muxing mode : zlib

  120. Codec ID : S_HDMV/PGS

  121. Codec ID/Info : Picture based subtitle format used on BDs/HD-DVDs

  122. Duration : 1 h 41 min

  123. Bit rate : 29.3 kb/s

  124. Count of elements : 2143

  125. Stream size : 21.3 MiB (0%)

  126. Language : English

  127. Default : Yes

  128. Forced : No

  129. Original source medium : Blu-ray


  130. Menu

  131. 00:00:00.000 : Chapter 01

  132. 00:08:28.666 : Chapter 02

  133. 00:16:37.083 : Chapter 03

  134. 00:25:12.166 : Chapter 04

  135. 00:33:40.000 : Chapter 05

  136. 00:42:39.125 : Chapter 06

  137. 00:52:03.625 : Chapter 07

  138. 01:00:38.125 : Chapter 08

  139. 01:07:57.791 : Chapter 09

  140. 01:17:15.125 : Chapter 10

  141. 01:26:59.583 : Chapter 11

  142. 01:34:16.875 : Chapter 12


文件下载


除非特别注明,本文『天与地[粤语音轨/中文字幕].Tian.Di.1994.1080p.迅雷下载 10.63GB』来源于互联网机器人自动抓取,非本站原创。 浮游电影网不对本文拥有版权,如有侵犯,请联系邮箱:fuyouu#yandex.com[#换成@]投诉。我们会在15个工作日内删除。 但烦请转载时请标明出处:“本文转载于『浮游电影网』,原文地址:https://www.fuyouu.com/12801.html

评论吧骚年!

发表你的见解   

昵称*

E-mail*(建议输入,以便收到博主回复的提示邮件)

验证码*

您可以使用eMule或eMule Mod(Windows)、aMule(Win、Linux、Mac)等软件下载eD2k链接。。
eMule收藏集(.emulecollection)文件是您选中的所有链接的列表文件。eMule可以直接下载它们。
按住SHIFT键选择可以选中多个选择框。
可用文件名和大小选择器来选择文件。
文件名选择器帮您根据文件名称或后缀来选择文件。不分大小写。
符号使用:
和:空格( )、+
不包含:-
或:|
转义:一对英文引号("");
匹配开头:^
匹配结尾:$
例如:
选中所有名称中包含有“eMule”或“0.49c”字眼,但不包含有“exe”字眼的:emule|0.49c -exe
选中所有名称的开头是“eMule”,结尾是“0.49c”的:^emule 0.49c$
选中所有名称中带有“eMule 0.49c”的(必须是“eMule 0.49c”,中间没有别的字符,不能是“eMule fake 0.49c”),需要转义:"emule 0.49c"
大小选择器帮您根据文件大小选择文件。