当前位置: 首页 >> 日韩电影 >> 银魂2[中文字幕].Gintama.2.Rules.are.Meant.to.be.Broken.2018.1080p.迅雷下载 1.20GB >> 正文

银魂2[中文字幕].Gintama.2.Rules.are.Meant.to.be.Broken.2018.1080p.迅雷下载 1.20GB

2021年06月29日 23:16:10     电影发布:来源于网络     电影分类:日韩电影     评论(0)    

银魂2[中文字幕].Gintama.2.Rules.are.Meant.to.be.Broken.2018.1080p.迅雷下载 1.20GB 冒险片 动作片 剧情片 日韩电影  第1张

◎译 名 银魂2 / 银魂2:规则是用来打破的 / 规定就是为了被打破而存在的 / Gintama 2

◎片 名 銀魂2 掟は破るためにこそある

◎年 代 2018

◎产 地 日本

◎类 别 喜剧 / 动作 / 冒险

◎语 言 日语

◎上映日期 2018-08-17(日本)

◎IMDb链接 https://www.imdb.com/title/tt7639528/

◎豆瓣评分 7.3/10 (34941人评价)

◎豆瓣链接 https://movie.douban.com/subject/27199577/

◎片 长 135分钟

◎导 演 福田雄一 Y?ichi Fukuda (id:1325118)

◎编 剧 福田雄一 Y?ichi Fukuda (id:1325118)

空知英秋 Hideaki Sorachi (id:1322242)

◎演 员 小栗旬 Shun Oguri (id:1014229)

菅田将晖 Masaki Suda (id:1274418)

桥本环奈 Kanna Hashimoto (id:1322189)

柳乐优弥 Y?ya Yagira (id:1000910)

吉泽亮 Yoshizawa Ryo (id:1315730)

三浦春马 Haruma Miura (id:1274379)

洼田正孝 Masataka Kubota (id:1314832)

室毅 Tsuyoshi Muro (id:1275807)

长泽雅美 Masami Nagasawa (id:1018667)

冈田将生 Masaki Okada (id:1274453)

木村绿子 Midoriko Kimura (id:1323325)

佐藤二朗 Jir? Sat? (id:1315821)

中村勘九郎 Kantarou Nakamura (id:1042947)

堂本刚 Tsuyoshi D?moto (id:1087140)

堤真一 Shin'ichi Tsutsumi (id:1151079)

胜地凉 Ryo Katsuji (id:1024141)

夏菜 Natsuna (id:1275343)

户塚纯贵 Junki Tozuka (id:1321044)

立木文彦 Fumihiko Tachiki (id:1048550)

一之濑亘 Wataru Ichinose (id:1390547)

大智 Daichi (id:1377430)

山田孝之 Yamada Takayuki (id:1028166)

六角精儿 Seiji Rokkaku (id:1312854)

白鸟玉季 Tamaki Shiratori (id:1370016)

◎标 签 日本 / 银魂 / 漫画改编 / 喜剧 / 真人化 / 漫改 / 搞笑 / 2018

◎简 介

位于歌舞伎町一隅的万事屋,坂田银时(小栗旬饰)、志村新八(菅田将晖饰)和神乐(桥本环奈饰)因为没钱交房租而焦头烂额,于是三人只得外出打工。他们先是去夜总会担任女招待,之后又临时充当理发师,可好死不死都碰上了微服出访的将军大人德川茂茂(胜地凉饰),令他们战战兢兢,如履薄冰。另一方面,真选组土方十四郎(柳乐优弥饰)遭伊东鸭太郎(三浦春马饰)暗算,从刚硬坚毅的武士变成了柔弱怯懦的御宅族,最终被真选组扫地出门。在此之后,伊东联合鬼兵队,策划足以颠覆江户政府的大阴谋……

本片根据空知英秋的超人气漫画改编改编,是同系列真人电影的第二部,此次的故事根据“将军接待篇”和“真选组动乱篇”改编。

◎获奖情况 (共1项)

第6届豆瓣电影年度榜单 (2019)

评分最高的日本电影(提名)

  1. General

  2. Unique ID : 179166167503063473540231735210561838973 (0x86CA26114D9A67AAA6F39A21DF0D1F7D)

  3. Complete name : Gintama.2.Rules.are.Meant.to.be.Broken.2018.1080p.WEB-DL.H264.AAC-xiaopie@CHDWEB.mkv

  4. Format : Matroska

  5. Format version : Version 4

  6. File size : 1.20 GiB

  7. Duration : 2 h 14 min

  8. Overall bit rate : 1 279 kb/s

  9. Encoded date : UTC 2021-06-27 08:07:58

  10. Writing application : mkvmerge v56.1.0 ('My Friend') 64-bit

  11. Writing library : libebml v1.4.2 + libmatroska v1.6.4

  12. Video

  13. ID : 1

  14. Format : HEVC

  15. Format/Info : High Efficiency Video Coding

  16. Format profile : Main@L4@Main

  17. Codec ID : V_MPEGH/ISO/HEVC

  18. Duration : 2 h 14 min

  19. Bit rate : 1 087 kb/s

  20. Width : 1 920 pixels

  21. Height : 1 080 pixels

  22. Display aspect ratio : 16:9

  23. Frame rate mode : Constant

  24. Frame rate : 23.976 (23976/1000/53354) FPS

  25. Original frame rate : 23.976 (24000/1001/53354) FPS

  26. Color space : YUV

  27. Chroma subsampling : 4:2:0

  28. Bit depth : 8 bits

  29. Bits/(Pixel*Frame) : 0.022

  30. Stream size : 1.02 GiB (85%)

  31. Default : Yes

  32. Forced : No

  33. Audio

  34. ID : 2

  35. Format : AAC LC

  36. Format/Info : Advanced Audio Codec Low Complexity

  37. Codec ID : A_AAC-2

  38. Duration : 2 h 14 min

  39. Bit rate : 192 kb/s

  40. Channel(s) : 2 channels

  41. Channel layout : L R

  42. Sampling rate : 44.1 kHz

  43. Frame rate : 43.066 FPS (1024 SPF)

  44. Compression mode : Lossy

  45. Stream size : 183 MiB (15%)

  46. Language : Japanese

  47. Default : Yes

  48. Forced : No

  49. Text #1

  50. ID : 3

  51. Format : UTF-8

  52. Codec ID : S_TEXT/UTF8

  53. Codec ID/Info : UTF-8 Plain Text

  54. Duration : 2 h 10 min

  55. Bit rate : 51 b/s

  56. Count of elements : 1869

  57. Stream size : 49.7 KiB (0%)

  58. Title : Chinese Simplified

  59. Language : Chinese

  60. Default : Yes

  61. Forced : No

  62. Text #2

  63. ID : 4

  64. Format : UTF-8

  65. Codec ID : S_TEXT/UTF8

  66. Codec ID/Info : UTF-8 Plain Text

  67. Duration : 2 h 10 min

  68. Bit rate : 51 b/s

  69. Count of elements : 1869

  70. Stream size : 49.7 KiB (0%)

  71. Title : Chinese Traditional

  72. Language : Chinese

  73. Default : No

  74. Forced : No

  75. Text #3

  76. ID : 5

  77. Format : UTF-8

  78. Codec ID : S_TEXT/UTF8

  79. Codec ID/Info : UTF-8 Plain Text

  80. Duration : 2 h 10 min

  81. Bit rate : 54 b/s

  82. Count of elements : 1870

  83. Stream size : 52.0 KiB (0%)

  84. Title : English

  85. Language : English

  86. Default : No

  87. Forced : No



文件下载


除非特别注明,本文『银魂2[中文字幕].Gintama.2.Rules.are.Meant.to.be.Broken.2018.1080p.迅雷下载 1.20GB』来源于互联网机器人自动抓取,非本站原创。 浮游电影网不对本文拥有版权,如有侵犯,请联系邮箱:fuyouu#yandex.com[#换成@]投诉。我们会在15个工作日内删除。 但烦请转载时请标明出处:“本文转载于『浮游电影网』,原文地址:https://www.fuyouu.com/12784.html

评论吧骚年!

发表你的见解   

昵称*

E-mail*(建议输入,以便收到博主回复的提示邮件)

验证码*

您可以使用eMule或eMule Mod(Windows)、aMule(Win、Linux、Mac)等软件下载eD2k链接。。
eMule收藏集(.emulecollection)文件是您选中的所有链接的列表文件。eMule可以直接下载它们。
按住SHIFT键选择可以选中多个选择框。
可用文件名和大小选择器来选择文件。
文件名选择器帮您根据文件名称或后缀来选择文件。不分大小写。
符号使用:
和:空格( )、+
不包含:-
或:|
转义:一对英文引号("");
匹配开头:^
匹配结尾:$
例如:
选中所有名称中包含有“eMule”或“0.49c”字眼,但不包含有“exe”字眼的:emule|0.49c -exe
选中所有名称的开头是“eMule”,结尾是“0.49c”的:^emule 0.49c$
选中所有名称中带有“eMule 0.49c”的(必须是“eMule 0.49c”,中间没有别的字符,不能是“eMule fake 0.49c”),需要转义:"emule 0.49c"
大小选择器帮您根据文件大小选择文件。