当前位置: 首页 >> 港台电影 >> 玉蒲团现代版[粤语音轨/中文字幕].Yu.Pui.Tsuen.III.1996.1080p.迅雷下载 10.72GB >> 正文

玉蒲团现代版[粤语音轨/中文字幕].Yu.Pui.Tsuen.III.1996.1080p.迅雷下载 10.72GB

2021年06月28日 20:38:02     电影发布:来源于网络     电影分类:港台电影     评论(0)    

玉蒲团现代版[粤语音轨/中文字幕].Yu.Pui.Tsuen.III.1996.1080p.迅雷下载 10.72GB 情色 剧情片 港台电影  第1张

◎译 名 玉蒲团现代版 / Yu Pui Tsuen

◎片 名 玉蒲团

◎年 代 1986

◎产 地 中国香港

◎类 别 剧情 / 情色

◎语 言 粤语

◎上映日期 1986-12-12(中国香港)

◎IMDb链接 https://www.imdb.com/title//

◎豆瓣链接 https://movie.douban.com/subject/34608241/

◎导 演 何藩 Fan Ho (id:1029511)

◎演 员 森田水绘 Mizue Morita (id:1327548)

◎标 签 情色 / 香港电影 / 香港 / 日本 / 日本女虐待 / 1986 / 森田水绘 / 1980s

◎简 介

玉蒲团(1986)与足本玉蒲团(浮世风情绘)1987并不是同一部电影。讲述了香港先生阿Paul(车保罗饰)在深山古寺里拜访了高僧(关海山饰)之后经历一连串艳遇又回到古寺悔过的故事。本片据主演车保罗透露是由仓田保昭介绍去日本拍功夫片却不想被骗而拍成了情色片。

  1. General

  2. Unique ID : 139769561702776097812971304872628411433 (0x6926A36F79A287C939652AD7716F5C29)

  3. Complete name : Yu.Pui.Tsuen.III.1996.1080p.BluRay.x264.FLAC.2.0.2Audio-PTH.mkv

  4. Format : Matroska

  5. Format version : Version 4

  6. File size : 10.7 GiB

  7. Duration : 1 h 36 min

  8. Overall bit rate mode : Variable

  9. Overall bit rate : 15.9 Mb/s

  10. Movie name : Yu Pui Tsuen III 1996

  11. Encoded date : UTC 2021-06-26 01:19:33

  12. Writing application : mkvmerge v58.0.0 ('Supper's Ready') 64-bit

  13. Writing library : libebml v1.4.2 + libmatroska v1.6.4

  14. Cover : Yes

  15. Attachments : cover.jpg


  16. Video

  17. ID : 1

  18. Format : AVC

  19. Format/Info : Advanced Video Codec

  20. Format profile : High@L4.1

  21. Format settings : CABAC / 4 Ref Frames

  22. Format settings, CABAC : Yes

  23. Format settings, Reference frames : 4 frames

  24. Codec ID : V_MPEG4/ISO/AVC

  25. Duration : 1 h 36 min

  26. Bit rate : 14.5 Mb/s

  27. Width : 1 920 pixels

  28. Height : 1 080 pixels

  29. Display aspect ratio : 16:9

  30. Frame rate mode : Constant

  31. Frame rate : 24.000 FPS

  32. Color space : YUV

  33. Chroma subsampling : 4:2:0

  34. Bit depth : 8 bits

  35. Scan type : Progressive

  36. Bits/(Pixel*Frame) : 0.291

  37. Stream size : 9.75 GiB (91%)

  38. Writing library : x264 core 163 r3059+79M f2a8266 t_mod_test_xavc [(8 & 10)-bit@all X86_64]

  39. Encoding settings : cabac=1 / ref=4 / deblock=1:-3:-3 / analyse=0x3:0x133 / me=umh / subme=11 / psy=1 / fade_compensate=0.00 / psy_rd=1.00:0.00 / mixed_ref=1 / me_range=48 / chroma_me=1 / trellis=2 / 8x8dct=1 / cqm=0 / deadzone=21,11 / fast_pskip=0 / chroma_qp_offset=-3 / threads=34 / lookahead_threads=8 / sliced_threads=0 / nr=0 / decimate=0 / interlaced=0 / NTMzNTQ= / bluray_compat=0 / constrained_intra=0 / fgo=0 / bframes=11 / b_pyramid=2 / b_adapt=2 / b_bias=0 / direct=3 / weightb=1 / open_gop=0 / weightp=2 / keyint=240 / keyint_min=1 / NTMzNTQ=uuDQuD2mJt9fsCf / scenecut=40 / intra_refresh=0 / rc_lookahead=72 / rc=crf / mbtree=0 / crf=18.5000 / qcomp=0.60 / qpmin=0:0:0 / qpmax=69:69:69 / qpstep=4 / vbv_maxrate=62500 / vbv_bufsize=78125 / crf_max=0.0 / nal_hrd=none / filler=0 / NTMzNTQ=LmsMAP37EqsCpk / ip_ratio=1.40 / pb_ratio=1.30 / aq=3:0.80 / aq-sensitivity=10.00 / aq-factor=1.00:1.00:1.00 / aq2=0 / aq3=0

  40. Language : English

  41. Default : Yes

  42. Forced : No


  43. Audio #1

  44. ID : 2

  45. Format : FLAC

  46. Format/Info : Free Lossless Audio Codec

  47. Codec ID : A_FLAC

  48. Duration : 1 h 36 min

  49. Bit rate mode : Variable

  50. Bit rate : 702 kb/s

  51. Channel(s) : 2 channels

  52. Channel layout : L R

  53. Sampling rate : 48.0 kHz

  54. Frame rate : 11.719 FPS (4096 SPF)

  55. Bit depth : 24 bits

  56. Compression mode : Lossless

  57. Stream size : 484 MiB (4%)

  58. Title : Cantonese

  59. Writing library : libFLAC 1.2.1 (UTC 2007-09-17)

  60. Language : Chinese

  61. Default : Yes

  62. Forced : No


  63. Audio #2

  64. ID : 3

  65. Format : FLAC

  66. Format/Info : Free Lossless Audio Codec

  67. Codec ID : A_FLAC

  68. Duration : 1 h 36 min

  69. Bit rate mode : Variable

  70. Bit rate : 710 kb/s

  71. Channel(s) : 2 channels

  72. Channel layout : L R

  73. Sampling rate : 48.0 kHz

  74. Frame rate : 11.719 FPS (4096 SPF)

  75. Bit depth : 24 bits

  76. Compression mode : Lossless

  77. Stream size : 490 MiB (4%)

  78. Title : Mandarin

  79. Writing library : libFLAC 1.2.1 (UTC 2007-09-17)

  80. Language : Chinese

  81. Default : Yes

  82. Forced : No


  83. Text #1

  84. ID : 4

  85. ID in the original source medium : 4609 (0x1201)

  86. Format : PGS

  87. Muxing mode : zlib

  88. Codec ID : S_HDMV/PGS

  89. Codec ID/Info : Picture based subtitle format used on BDs/HD-DVDs

  90. Duration : 1 h 33 min

  91. Bit rate : 26.5 kb/s

  92. Count of elements : 1610

  93. Stream size : 17.7 MiB (0%)

  94. Title : chs

  95. Language : Chinese

  96. Default : Yes

  97. Forced : No

  98. Original source medium : Blu-ray


  99. Text #2

  100. ID : 5

  101. ID in the original source medium : 4608 (0x1200)

  102. Format : PGS

  103. Muxing mode : zlib

  104. Codec ID : S_HDMV/PGS

  105. Codec ID/Info : Picture based subtitle format used on BDs/HD-DVDs

  106. Duration : 1 h 33 min

  107. Bit rate : 27.1 kb/s

  108. Count of elements : 1610

  109. Stream size : 18.0 MiB (0%)

  110. Title : cht

  111. Language : Chinese

  112. Default : Yes

  113. Forced : No

  114. Original source medium : Blu-ray


  115. Text #3

  116. ID : 6

  117. ID in the original source medium : 4610 (0x1202)

  118. Format : PGS

  119. Muxing mode : zlib

  120. Codec ID : S_HDMV/PGS

  121. Codec ID/Info : Picture based subtitle format used on BDs/HD-DVDs

  122. Duration : 1 h 33 min

  123. Bit rate : 31.8 kb/s

  124. Count of elements : 1610

  125. Stream size : 21.2 MiB (0%)

  126. Language : English

  127. Default : Yes

  128. Forced : No

  129. Original source medium : Blu-ray


  130. Menu

  131. 00:00:00.000 : 第 01 章

  132. 00:09:11.625 : 第 02 章

  133. 00:15:14.708 : 第 03 章

  134. 00:24:35.541 : 第 04 章

  135. 00:31:59.083 : 第 05 章

  136. 00:39:22.416 : 第 06 章

  137. 00:49:03.708 : 第 07 章

  138. 00:56:19.833 : 第 08 章

  139. 01:05:26.250 : 第 09 章

  140. 01:14:12.291 : 第 10 章

  141. 01:21:21.708 : 第 11 章

  142. 01:28:31.666 : 第 12 章




文件下载


除非特别注明,本文『玉蒲团现代版[粤语音轨/中文字幕].Yu.Pui.Tsuen.III.1996.1080p.迅雷下载 10.72GB』来源于互联网机器人自动抓取,非本站原创。 浮游电影网不对本文拥有版权,如有侵犯,请联系邮箱:fuyouu#yandex.com[#换成@]投诉。我们会在15个工作日内删除。 但烦请转载时请标明出处:“本文转载于『浮游电影网』,原文地址:https://www.fuyouu.com/12758.html

评论吧骚年!

发表你的见解   

昵称*

E-mail*(建议输入,以便收到博主回复的提示邮件)

验证码*

您可以使用eMule或eMule Mod(Windows)、aMule(Win、Linux、Mac)等软件下载eD2k链接。。
eMule收藏集(.emulecollection)文件是您选中的所有链接的列表文件。eMule可以直接下载它们。
按住SHIFT键选择可以选中多个选择框。
可用文件名和大小选择器来选择文件。
文件名选择器帮您根据文件名称或后缀来选择文件。不分大小写。
符号使用:
和:空格( )、+
不包含:-
或:|
转义:一对英文引号("");
匹配开头:^
匹配结尾:$
例如:
选中所有名称中包含有“eMule”或“0.49c”字眼,但不包含有“exe”字眼的:emule|0.49c -exe
选中所有名称的开头是“eMule”,结尾是“0.49c”的:^emule 0.49c$
选中所有名称中带有“eMule 0.49c”的(必须是“eMule 0.49c”,中间没有别的字符,不能是“eMule fake 0.49c”),需要转义:"emule 0.49c"
大小选择器帮您根据文件大小选择文件。