当前位置: 首页 >> 动画电影 >> 最终幻想7:圣子降临[中文字幕].Final.Fantasy.VII.Advent.Children.2005.2160p.迅雷下载 19.80GB >> 正文

最终幻想7:圣子降临[中文字幕].Final.Fantasy.VII.Advent.Children.2005.2160p.迅雷下载 19.80GB

2021年06月28日 20:33:43     电影发布:来源于网络     电影分类:动画电影     评论(0)    

最终幻想7:圣子降临[中文字幕].Final.Fantasy.VII.Advent.Children.2005.2160p.迅雷下载 19.80GB 动画片 科幻片 惊悚片 动作片 动画电影  第1张

◎译 名 最终幻想7:圣子降临 / 最终幻想7:归来之子 / 最终幻想7:降临之子 / 最终幻想7:圣童降临 / Final Fantasy VII: Advent Children / FFVII ACC

◎片 名 ファイナルファンタジーⅦ アドベントチルドレン

◎年 代 2005

◎产 地 日本

◎类 别 动作 / 科幻 / 动画 / 惊悚

◎语 言 日语 / 英语

◎上映日期 2005-09-14(日本)

◎IMDb链接 https://www.imdb.com/title/tt0385700/

◎豆瓣评分 8.3/10 (54006人评价)

◎豆瓣链接 https://movie.douban.com/subject/1422063/

◎片 长 101 分钟

◎导 演 野村哲也 Tetsuya Nomura (id:1028126)

野末武志 Takeshi Nozue (id:1361966)

◎演 员 樱井孝宏 Takahiro Sakurai (id:1019264)

伊藤步 Ayumi Ito (id:1000823)

森久保祥太郎 Shotaro Morikubo (id:1033302)

森川智之 Toshiyuki Morikawa (id:1008108)

坂本真绫 Maaya Sakamoto (id:1146783)

大川透 T?ru ?kawa (id:1034027)

藤原启治 Keiji Fujiwara (id:1028837)

楠大典 Taiten Kusunoki (id:1107327)

岸祐二 Y?ji Kishi (id:1029266)

乃村健次 Kenji Nomura (id:1132695)

铃木省吾 Shōgo Suzuki (id:1378290)

小林正宽 Masahiro Kobayashi (id:1376121)

山路和弘 Kazuhiro Yamaji (id:1360165)

嘉数由美 Yumi Kakazu (id:1020284)

石川英郎 Hideo Ishikawa (id:1037977)

市村正亲 Masachika Ichimura (id:1006312)

诸星堇 Sumire Morohoshi (id:1319649)

诹访部顺一 Junichi Suwabe (id:1003577)

丰口惠美 Megumi Toyoguchi (id:1016914)

银河万丈 Banj? Ginga (id:1042350)

铃村健一 Kenichi Suzumura (id:1050963)

田村睦心 Mutsumi Tamura (id:1275890)

日笠阳子 Yoko Hikasa (id:1275199)

森田成一 Masakazu Morita (id:1028326)

野末武志 Takeshi Nozue (id:1361966)

◎标 签 ANIME / 最终幻想 / 动画 / 日本 / CG / 科幻 / 日本动画 / 动漫

◎简 介

赛菲罗斯的事件已经过去2年了,人类从巨大陨石的灾难之下逃脱。曾经繁荣的都市虽然满目疮痍,但人们已经开始投入重建家园的工作之中。而拯救世界的英雄克劳德,却过着与世隔绝的生活。

但是,神秘的疾病“星痕症候群”在世界蔓延。蒂法?洛克哈特决定找寻克劳德。但当她找到克劳德之时,眼前这个人,只是一个为艾利斯之死郁郁寡欢的落魄男子。

以继承赛菲罗斯的遗志而组成的白发三人组出现在人们眼前,文森特不得不再次挥动双枪,保护大家。而世界的英雄,克劳德,能否再次振作,守护这个世界呢?

  1. General

  2. Unique ID : 150257671039730472733214881397909826825 (0x710A932648EB9446449E070321952D09)

  3. Complete name : Final.Fantasy.VII.Advent.Children.2005.2160p.HDR.UHD.BluRay.TrueHD.7.1.Atmos.2Audio.x265-10bit-HDS.mkv

  4. Format : Matroska

  5. Format version : Version 4

  6. File size : 19.8 GiB

  7. Duration : 2 h 6 min

  8. Overall bit rate mode : Variable

  9. Overall bit rate : 22.4 Mb/s

  10. Movie name : Final Fantasy VII Advent Children 2005 2160p HDR UHD BluRay TrueHD 7.1 Atmos 2Audio x265-10bit-HDS

  11. Encoded date : UTC 2021-06-24 13:01:55

  12. Writing application : mkvmerge v38.0.0 ('The Silent Type') 64-bit

  13. Writing library : libebml v1.3.9 + libmatroska v1.5.2


  14. Video

  15. ID : 1

  16. Format : HEVC

  17. Format/Info : High Efficiency Video Coding

  18. Format profile : Main 10@L5.1@High

  19. HDR format : SMPTE ST 2086, HDR10 compatible

  20. Codec ID : V_MPEGH/ISO/HEVC

  21. Duration : 2 h 6 min

  22. Bit rate : 11.6 Mb/s

  23. Width : 3 840 pixels

  24. Height : 2 160 pixels

  25. Display aspect ratio : 16:9

  26. Frame rate mode : Constant

  27. Frame rate : 23.976 (24000/1001/53354) FPS

  28. Color space : YUV

  29. Chroma subsampling : 4:2:0

  30. Bit depth : 10 bits

  31. Bits/(Pixel*Frame) : 0.059

  32. Stream size : 10.3 GiB (52%)

  33. Title : @HDSky

  34. Writing library : x265 - H.265/HEVC codec

  35. Default : Yes

  36. Forced : No

  37. Color range : Limited

  38. Color primaries : BT.2020

  39. Transfer characteristics : PQ

  40. Matrix coefficients : BT.2020 non-constant

  41. Mastering display color primaries : Display P3

  42. Mastering display luminance : min: 0.0020 cd/m2, max: 1000 cd/m2

  43. Maximum Content Light Level : 739 cd/m2

  44. Maximum Frame-Average Light Level : 331 cd/m2


  45. Audio #1

  46. ID : 2

  47. Format : MLP FBA 16-ch

  48. Format/Info : Meridian Lossless Packing FBA with 16-channel presentation

  49. Commercial name : Dolby TrueHD with Dolby Atmos

  50. Codec ID : A_TRUEHD

  51. Duration : 2 h 6 min

  52. Bit rate mode : Variable

  53. Bit rate : 5 294 kb/s

  54. Maximum bit rate : 8 253 kb/s

  55. Channel(s) : 8 channels

  56. Channel layout : L R C LFE Ls Rs Lb Rb

  57. Sampling rate : 48.0 kHz

  58. Frame rate : 1 200.000 FPS (40 SPF)

  59. Compression mode : Lossless

  60. Stream size : 4.68 GiB (24%)

  61. Title : Japanese

  62. Language : Japanese

  63. Default : Yes

  64. Forced : No

  65. Number of dynamic objects : 11

  66. Bed channel count : 1 channel

  67. Bed channel configuration : LFE


  68. Audio #2

  69. ID : 3

  70. Format : MLP FBA 16-ch

  71. Format/Info : Meridian Lossless Packing FBA with 16-channel presentation

  72. Commercial name : Dolby TrueHD with Dolby Atmos

  73. Codec ID : A_TRUEHD

  74. Duration : 2 h 6 min

  75. Bit rate mode : Variable

  76. Bit rate : 5 309 kb/s

  77. Maximum bit rate : 8 292 kb/s

  78. Channel(s) : 8 channels

  79. Channel layout : L R C LFE Ls Rs Lb Rb

  80. Sampling rate : 48.0 kHz

  81. Frame rate : 1 200.000 FPS (40 SPF)

  82. Compression mode : Lossless

  83. Stream size : 4.69 GiB (24%)

  84. Title : English

  85. Language : English

  86. Default : No

  87. Forced : No

  88. Number of dynamic objects : 11

  89. Bed channel count : 1 channel

  90. Bed channel configuration : LFE


  91. Text #1

  92. ID : 4

  93. Format : PGS

  94. Muxing mode : zlib

  95. Codec ID : S_HDMV/PGS

  96. Codec ID/Info : Picture based subtitle format used on BDs/HD-DVDs

  97. Duration : 2 h 6 min

  98. Bit rate : 17.7 kb/s

  99. Count of elements : 2044

  100. Stream size : 16.0 MiB (0%)

  101. Title : ENG

  102. Language : English

  103. Default : Yes

  104. Forced : No


  105. Text #2

  106. ID : 5

  107. Format : PGS

  108. Muxing mode : zlib

  109. Codec ID : S_HDMV/PGS

  110. Codec ID/Info : Picture based subtitle format used on BDs/HD-DVDs

  111. Duration : 2 h 6 min

  112. Bit rate : 14.5 kb/s

  113. Count of elements : 1504

  114. Stream size : 13.1 MiB (0%)

  115. Title : CHS

  116. Language : Chinese

  117. Default : No

  118. Forced : No


  119. Text #3

  120. ID : 6

  121. Format : PGS

  122. Muxing mode : zlib

  123. Codec ID : S_HDMV/PGS

  124. Codec ID/Info : Picture based subtitle format used on BDs/HD-DVDs

  125. Duration : 2 h 6 min

  126. Bit rate : 14.2 kb/s

  127. Count of elements : 1502

  128. Stream size : 12.8 MiB (0%)

  129. Title : CHT

  130. Language : Chinese

  131. Default : No

  132. Forced : No


  133. Menu

  134. 00:00:00.000 : en:Chapter 01

  135. 00:11:37.572 : en:Chapter 02

  136. 00:21:31.582 : en:Chapter 03

  137. 00:34:00.872 : en:Chapter 04

  138. 00:43:27.104 : en:Chapter 05

  139. 00:53:38.048 : en:Chapter 06

  140. 00:59:24.644 : en:Chapter 07

  141. 01:08:53.004 : en:Chapter 08

  142. 01:16:24.705 : en:Chapter 09

  143. 01:19:41.735 : en:Chapter 10

  144. 01:28:15.499 : en:Chapter 11

  145. 01:35:29.307 : en:Chapter 12

  146. 01:37:42.356 : en:Chapter 13

  147. 01:43:26.575 : en:Chapter 14

  148. 01:46:20.457 : en:Chapter 15

  149. 01:50:20.155 : en:Chapter 16



文件下载


除非特别注明,本文『最终幻想7:圣子降临[中文字幕].Final.Fantasy.VII.Advent.Children.2005.2160p.迅雷下载 19.80GB』来源于互联网机器人自动抓取,非本站原创。 浮游电影网不对本文拥有版权,如有侵犯,请联系邮箱:fuyouu#yandex.com[#换成@]投诉。我们会在15个工作日内删除。 但烦请转载时请标明出处:“本文转载于『浮游电影网』,原文地址:https://www.fuyouu.com/12755.html

评论吧骚年!

发表你的见解   

昵称*

E-mail*(建议输入,以便收到博主回复的提示邮件)

验证码*

您可以使用eMule或eMule Mod(Windows)、aMule(Win、Linux、Mac)等软件下载eD2k链接。。
eMule收藏集(.emulecollection)文件是您选中的所有链接的列表文件。eMule可以直接下载它们。
按住SHIFT键选择可以选中多个选择框。
可用文件名和大小选择器来选择文件。
文件名选择器帮您根据文件名称或后缀来选择文件。不分大小写。
符号使用:
和:空格( )、+
不包含:-
或:|
转义:一对英文引号("");
匹配开头:^
匹配结尾:$
例如:
选中所有名称中包含有“eMule”或“0.49c”字眼,但不包含有“exe”字眼的:emule|0.49c -exe
选中所有名称的开头是“eMule”,结尾是“0.49c”的:^emule 0.49c$
选中所有名称中带有“eMule 0.49c”的(必须是“eMule 0.49c”,中间没有别的字符,不能是“eMule fake 0.49c”),需要转义:"emule 0.49c"
大小选择器帮您根据文件大小选择文件。