当前位置: 首页 >> 欧美电影 >> 超脑48小时[中文字幕].Criminal.2016.2160p.迅雷下载 20.18GB >> 正文

超脑48小时[中文字幕].Criminal.2016.2160p.迅雷下载 20.18GB

2021年06月28日 20:28:33     电影发布:来源于网络     电影分类:欧美电影     评论(0)    

超脑48小时[中文字幕].Criminal.2016.2160p.迅雷下载 20.18GB 犯罪片 悬疑片 惊悚片 动作片 剧情片 欧美电影  第1张

◎译 名 超脑48小时 / 换脑缉凶(港) / 换脑行动(台) / 世纪罪犯

◎片 名 Criminal

◎年 代 2016

◎产 地 英国 / 美国

◎类 别 剧情 / 动作 / 悬疑 / 惊悚 / 犯罪

◎语 言 英语

◎上映日期 2016-05-13(中国大陆) / 2016-04-15(英国/美国)

◎IMDb链接 https://www.imdb.com/title/tt3014866/

◎豆瓣评分 6.5/10 (46248人评价)

◎豆瓣链接 https://movie.douban.com/subject/25944714/

◎片 长 113分钟

◎导 演 阿里尔·弗罗门 Ariel Vromen (id:1005450)

◎编 剧 道格拉斯·库克 Douglas Cook (id:1356775)

大卫·韦斯伯格 David Weisberg (id:1356776)

◎演 员 凯文·科斯特纳 Kevin Costner (id:1016671)

加里·奥德曼 Gary Oldman (id:1010507)

汤米·李·琼斯 Tommy Lee Jones (id:1047994)

瑞恩·雷诺兹 Ryan Reynolds (id:1053623)

盖尔·加朵 Gal Gadot (id:1044996)

爱丽丝·伊芙 Alice Eve (id:1004565)

迈克尔·皮特 Michael Pitt (id:1000090)

詹迪·莫拉 Jordi Mollà (id:1010647)

安婕·特拉乌 Antje Traue (id:1013842)

斯科特·阿金斯 Scott Adkins (id:1017912)

阿莫里·诺拉斯科 Amaury Nolasco (id:1013860)

娜塔莉·伯恩 Natalie Burn (id:1341315)

罗伯特·戴维 Robert Davi (id:1010551)

安娜斯塔西亚·哈罗德 Anastasia Harrold (id:1350744)

史蒂文·布兰德 Steven Brand (id:1009579)

哈里·赫普 Harry Hepple (id:1352179)

丹尼·韦伯 Danny Webb (id:1162175)

索佩·迪瑞苏 Sope Dirisu (id:1373468)

科林·萨蒙 Colin Salmon (id:1314721)

道格·科克尔 Doug Cockle (id:1070690)

米迦勒·博迪 Michael Bodie (id:1367613)

大卫·艾弗里 David Avery (id:1347785)

马修·斯蒂尔 Matthew Steer (id:1160393)

安得烈·拜伦 Andrew Byron (id:1195416)

亨利·加勒特 Henry Garrett (id:1319194)

蒂姆·伍德沃德 Tim Woodward (id:1161189)

普莉安卡·伯福德 Priyanga Burford (id:1372007)

皮尔斯·摩根 Piers Morgan (id:1000258)

路易斯·塔摩内 Louis Tamone (id:1195768)

伊安·布尔费尔德 Ian Burfield (id:1340859)

拉腊·德坎罗 Lara Decaro (id:1358104)

李·尼古拉斯·哈里斯 Lee Nicholas Harris (id:1333551)

张欣 Xin Zhang (id:1325717)

布莱恩·泰勒 Brian Tyler (id:1276412)

◎标 签 动作 / 犯罪 / 科幻 / 美国 / 悬疑 / 剧情 / 2016 / 英国

◎简 介

一位知悉国家机密的CIA探员比利·波普(瑞恩·雷诺兹RyanReynolds饰)意外身亡,在弗兰克斯博士(汤米·李·琼斯TommyLeeJones饰)的协助下将其记忆与技能植入了一位极度危险且无法预测的罪犯杰里科·斯图尔特(凯文·科斯特纳KevinCostner饰)身上,而探员贵格·威尔斯(加里·奥德曼GaryOldman饰)必须靠这位不定时炸弹来摧毁企图攫取国家机密的犯罪组织。杰里科·斯图尔特为了救回换脑后渐渐爱上的比利·波普被胁迫的妻子和孩子,重新找回自己的生活,不得不在48小时的时间里,与犯罪组织展开殊死搏斗。

  1. General

  2. Unique ID : 125756837629494104485104770828144362181 (0x5E9BE2CC527892F8FDB2DEAFE1D242C5)

  3. Complete name : Criminal.2016.2160p.HDR.UHD.BluRay.DTS-HD.MA.5.1.x265-10bit-HDS.mkv

  4. Format : Matroska

  5. Format version : Version 4

  6. File size : 20.2 GiB

  7. Duration : 1 h 53 min

  8. Overall bit rate mode : Variable

  9. Overall bit rate : 25.4 Mb/s

  10. Movie name : Criminal 2016 2160p HDR UHD BluRay DTS-HD MA 5.1 x265-10bit-HDS

  11. Encoded date : UTC 2021-06-24 23:12:28

  12. Writing application : mkvmerge v38.0.0 ('The Silent Type') 64-bit

  13. Writing library : libebml v1.3.9 + libmatroska v1.5.2


  14. Video

  15. ID : 1

  16. Format : HEVC

  17. Format/Info : High Efficiency Video Coding

  18. Format profile : Main 10@L5.1@High

  19. HDR format : SMPTE ST 2086, HDR10 compatible

  20. Codec ID : V_MPEGH/ISO/HEVC

  21. Duration : 1 h 53 min

  22. Bit rate : 21.8 Mb/s

  23. Width : 3 840 pixels

  24. Height : 2 160 pixels

  25. Display aspect ratio : 16:9

  26. Frame rate mode : Constant

  27. Frame rate : 23.976 (24000/1001/53354) FPS

  28. Color space : YUV

  29. Chroma subsampling : 4:2:0

  30. Bit depth : 10 bits

  31. Bits/(Pixel*Frame) : 0.109

  32. Stream size : 17.3 GiB (86%)

  33. Title : veryzayin@HDSky

  34. Writing library : x265 - H.265/HEVC codec

  35. Default : Yes

  36. Forced : No

  37. Color range : Limited

  38. Color primaries : BT.2020

  39. Transfer characteristics : PQ

  40. Matrix coefficients : BT.2020 non-constant

  41. Mastering display color primaries : Display P3

  42. Mastering display luminance : min: 0.0020 cd/m2, max: 1000 cd/m2

  43. Maximum Content Light Level : 739 cd/m2

  44. Maximum Frame-Average Light Level : 331 cd/m2


  45. Audio

  46. ID : 2

  47. Format : DTS XLL

  48. Format/Info : Digital Theater Systems

  49. Commercial name : DTS-HD Master Audio

  50. Codec ID : A_DTS

  51. Duration : 1 h 53 min

  52. Bit rate mode : Variable

  53. Bit rate : 3 608 kb/s

  54. Channel(s) : 6 channels

  55. Channel layout : C L R Ls Rs LFE

  56. Sampling rate : 48.0 kHz

  57. Frame rate : 93.750 FPS (512 SPF)

  58. Bit depth : 24 bits

  59. Compression mode : Lossless

  60. Stream size : 2.86 GiB (14%)

  61. Title : English

  62. Language : English

  63. Default : Yes

  64. Forced : No


  65. Text #1

  66. ID : 3

  67. Format : PGS

  68. Muxing mode : zlib

  69. Codec ID : S_HDMV/PGS

  70. Codec ID/Info : Picture based subtitle format used on BDs/HD-DVDs

  71. Duration : 1 h 43 min

  72. Bit rate : 22.6 kb/s

  73. Count of elements : 2108

  74. Stream size : 16.8 MiB (0%)

  75. Title : CHS

  76. Language : Chinese

  77. Default : Yes

  78. Forced : No


  79. Text #2

  80. ID : 4

  81. Format : PGS

  82. Muxing mode : zlib

  83. Codec ID : S_HDMV/PGS

  84. Codec ID/Info : Picture based subtitle format used on BDs/HD-DVDs

  85. Duration : 1 h 43 min

  86. Bit rate : 23.1 kb/s

  87. Count of elements : 2108

  88. Stream size : 17.1 MiB (0%)

  89. Title : CHT

  90. Language : Chinese

  91. Default : No

  92. Forced : No


  93. Text #3

  94. ID : 5

  95. Format : PGS

  96. Muxing mode : zlib

  97. Codec ID : S_HDMV/PGS

  98. Codec ID/Info : Picture based subtitle format used on BDs/HD-DVDs

  99. Duration : 1 h 43 min

  100. Bit rate : 38.9 kb/s

  101. Count of elements : 2108

  102. Stream size : 28.9 MiB (0%)

  103. Title : CHS&ENG

  104. Language : Chinese

  105. Default : No

  106. Forced : No


  107. Text #4

  108. ID : 6

  109. Format : PGS

  110. Muxing mode : zlib

  111. Codec ID : S_HDMV/PGS

  112. Codec ID/Info : Picture based subtitle format used on BDs/HD-DVDs

  113. Duration : 1 h 43 min

  114. Bit rate : 39.3 kb/s

  115. Count of elements : 2108

  116. Stream size : 29.2 MiB (0%)

  117. Title : CHT&ENG

  118. Language : Chinese

  119. Default : No

  120. Forced : No


  121. Menu

  122. 00:00:00.000 : en:Chapter 01

  123. 00:10:41.182 : en:Chapter 02

  124. 00:10:41.266 : en:Chapter 03

  125. 00:15:32.181 : en:Chapter 04

  126. 00:15:32.265 : en:Chapter 05

  127. 00:23:45.257 : en:Chapter 06

  128. 00:23:45.341 : en:Chapter 07

  129. 00:30:56.480 : en:Chapter 08

  130. 00:30:56.563 : en:Chapter 09

  131. 00:36:01.284 : en:Chapter 10

  132. 00:36:01.368 : en:Chapter 11

  133. 00:45:36.233 : en:Chapter 12

  134. 00:45:36.317 : en:Chapter 13

  135. 00:48:48.425 : en:Chapter 14

  136. 00:48:48.509 : en:Chapter 15

  137. 00:54:51.371 : en:Chapter 16

  138. 00:54:51.455 : en:Chapter 17

  139. 01:01:46.161 : en:Chapter 18

  140. 01:01:46.244 : en:Chapter 19

  141. 01:08:32.525 : en:Chapter 20

  142. 01:08:32.608 : en:Chapter 21

  143. 01:16:11.525 : en:Chapter 22

  144. 01:16:11.609 : en:Chapter 23

  145. 01:22:20.060 : en:Chapter 24

  146. 01:22:20.144 : en:Chapter 25

  147. 01:29:51.928 : en:Chapter 26

  148. 01:29:52.012 : en:Chapter 27

  149. 01:36:46.009 : en:Chapter 28

  150. 01:36:46.092 : en:Chapter 29

  151. 01:42:08.414 : en:Chapter 30

  152. 01:42:08.497 : en:Chapter 31


文件下载


除非特别注明,本文『超脑48小时[中文字幕].Criminal.2016.2160p.迅雷下载 20.18GB』来源于互联网机器人自动抓取,非本站原创。 浮游电影网不对本文拥有版权,如有侵犯,请联系邮箱:fuyouu#yandex.com[#换成@]投诉。我们会在15个工作日内删除。 但烦请转载时请标明出处:“本文转载于『浮游电影网』,原文地址:https://www.fuyouu.com/12752.html

评论吧骚年!

发表你的见解   

昵称*

E-mail*(建议输入,以便收到博主回复的提示邮件)

验证码*

您可以使用eMule或eMule Mod(Windows)、aMule(Win、Linux、Mac)等软件下载eD2k链接。。
eMule收藏集(.emulecollection)文件是您选中的所有链接的列表文件。eMule可以直接下载它们。
按住SHIFT键选择可以选中多个选择框。
可用文件名和大小选择器来选择文件。
文件名选择器帮您根据文件名称或后缀来选择文件。不分大小写。
符号使用:
和:空格( )、+
不包含:-
或:|
转义:一对英文引号("");
匹配开头:^
匹配结尾:$
例如:
选中所有名称中包含有“eMule”或“0.49c”字眼,但不包含有“exe”字眼的:emule|0.49c -exe
选中所有名称的开头是“eMule”,结尾是“0.49c”的:^emule 0.49c$
选中所有名称中带有“eMule 0.49c”的(必须是“eMule 0.49c”,中间没有别的字符,不能是“eMule fake 0.49c”),需要转义:"emule 0.49c"
大小选择器帮您根据文件大小选择文件。