当前位置: 首页 >> 欧美电影 >> 灵偶契约2[中文字幕].Brahms.The.Boy.II.2020.2160p.HDR.UHD.迅雷下载 12.49GB >> 正文

灵偶契约2[中文字幕].Brahms.The.Boy.II.2020.2160p.HDR.UHD.迅雷下载 12.49GB

2021年06月28日 20:26:38     电影发布:来源于网络     电影分类:欧美电影     评论(0)    

灵偶契约2[中文字幕].Brahms.The.Boy.II.2020.2160p.HDR.UHD.迅雷下载 12.49GB 悬疑片 恐怖片 惊悚片 欧美电影 第1张

◎译 名 灵偶契约2 / 尸孩2(港) / 托阴2:布拉姆回来了(台) / The Boy 2

◎片 名 Brahms: The Boy II

◎年 代 2020

◎产 地 美国

◎类 别 悬疑 / 惊悚 / 恐怖

◎语 言 英语

◎上映日期 2020-02-21(美国)

◎IMDb链接 https://www.imdb.com/title/tt9173418/

◎豆瓣评分 5.0/10 (1894人评价)

◎豆瓣链接 https://movie.douban.com/subject/30359790/

◎片 长 86分钟

◎导 演 威廉·布伦特·贝尔 William Brent Bell (id:1354248)

◎编 剧 史黛西·马妮尔 Stacey Menear (id:1354249)

◎演 员 凯蒂·霍尔姆斯 Katie Holmes (id:1053558)

欧文·约曼 Owain Yeoman (id:1009342)

克里斯托弗·康夫瑞 Christopher Convery (id:1385650)

拉尔夫·伊内森 Ralph Ineson (id:1108378)

安贾莉·杰 Anjali Jay (id:1349348)

奥利弗·莱斯 Oliver Rice (id:1327093)

娜塔莉·穆恩 Natalie Moon (id:1264016)

达芙妮·霍斯金斯 Daphne Hoskins (id:1431746)

乔莉·柯林斯 Joely Collins (id:1076518)

艾莉·金 Ellie King (id:1431747)

乔安妮·金 Joanne Kimm (id:1431748)

查尔斯·贾曼 Charles Jarman (id:1431749)

卡尔·沃尔特·林登 Karl Walter Lindenlaub (id:1018702)

◎标 签 恐怖 / 惊悚 / 灵异 / 美国 / 2020 / 悬疑 / 电影 / 悬疑惊悚

◎简 介

UnawareoftheterrifyinghistoryofHeelshireMansion,ayoungfamilymovesintoaguesthouseontheestatewheretheiryoungsonsoonmakesanunsettlingnewfriend,aneerilylife-likedollhecallsBrahms.KatieHolmesstarsinSTXfilmsandLakeshoreEntertainment’s,BRAHMS:THEBOYII,alongsideChristopherConvery(“Gotham”),OwainYeoman(TheBelkoExperience)andRalph...

◎获奖情况 (共1项)

第41届金酸莓奖 (2021)

最差女主角(提名)

└──凯蒂·霍尔姆斯 (id:1053558)

  1. General

  2. Unique ID : 85394090629562906317737462238916253376 (0x403E4DBA272A9B03F355C21BE4F216C0)

  3. Complete name : Brahms.The.Boy.II.2020.2160p.HDR.UHD.BluRay.DTS-HD.MA.5.1.x265-10bit-HDS.mkv

  4. Format : Matroska

  5. Format version : Version 4

  6. File size : 12.5 GiB

  7. Duration : 1 h 26 min

  8. Overall bit rate mode : Variable

  9. Overall bit rate : 20.6 Mb/s

  10. Movie name : Brahms The Boy II 2020 2160p HDR UHD BluRay DTS-HD MA 5.1 x265-10bit-HDS

  11. Encoded date : UTC 2021-06-25 22:47:54

  12. Writing application : mkvmerge v38.0.0 ('The Silent Type') 64-bit

  13. Writing library : libebml v1.3.9 + libmatroska v1.5.2


  14. Video

  15. ID : 1

  16. Format : HEVC

  17. Format/Info : High Efficiency Video Coding

  18. Format profile : Main 10@L5.1@High

  19. HDR format : SMPTE ST 2086, HDR10 compatible

  20. Codec ID : V_MPEGH/ISO/HEVC

  21. Duration : 1 h 26 min

  22. Bit rate : 18.8 Mb/s

  23. Width : 3 840 pixels

  24. Height : 2 160 pixels

  25. Display aspect ratio : 16:9

  26. Frame rate mode : Constant

  27. Frame rate : 23.976 (23976/1000/53354) FPS

  28. Color space : YUV

  29. Chroma subsampling : 4:2:0

  30. Bit depth : 10 bits

  31. Bits/(Pixel*Frame) : 0.095

  32. Stream size : 11.4 GiB (91%)

  33. Title : veryzayin@HDSky

  34. Writing library : x265 - H.265/HEVC codec

  35. Default : Yes

  36. Forced : No

  37. Color range : Limited

  38. Color primaries : BT.2020

  39. Transfer characteristics : PQ

  40. Matrix coefficients : BT.2020 non-constant

  41. Mastering display color primaries : Display P3

  42. Mastering display luminance : min: 0.0020 cd/m2, max: 1000 cd/m2

  43. Maximum Content Light Level : 739 cd/m2

  44. Maximum Frame-Average Light Level : 331 cd/m2


  45. Audio

  46. ID : 2

  47. Format : DTS XLL

  48. Format/Info : Digital Theater Systems

  49. Commercial name : DTS-HD Master Audio

  50. Codec ID : A_DTS

  51. Duration : 1 h 26 min

  52. Bit rate mode : Variable

  53. Bit rate : 1 784 kb/s

  54. Channel(s) : 6 channels

  55. Channel layout : C L R Ls Rs LFE

  56. Sampling rate : 48.0 kHz

  57. Frame rate : 93.750 FPS (512 SPF)

  58. Bit depth : 16 bits

  59. Compression mode : Lossless

  60. Stream size : 1.08 GiB (9%)

  61. Title : English

  62. Language : English

  63. Default : Yes

  64. Forced : No


  65. Text #1

  66. ID : 3

  67. Format : PGS

  68. Muxing mode : zlib

  69. Codec ID : S_HDMV/PGS

  70. Codec ID/Info : Picture based subtitle format used on BDs/HD-DVDs

  71. Duration : 1 h 21 min

  72. Bit rate : 21.1 kb/s

  73. Count of elements : 1540

  74. Stream size : 12.4 MiB (0%)

  75. Title : CHS

  76. Language : Chinese

  77. Default : Yes

  78. Forced : No


  79. Text #2

  80. ID : 4

  81. Format : PGS

  82. Muxing mode : zlib

  83. Codec ID : S_HDMV/PGS

  84. Codec ID/Info : Picture based subtitle format used on BDs/HD-DVDs

  85. Duration : 1 h 21 min

  86. Bit rate : 21.5 kb/s

  87. Count of elements : 1540

  88. Stream size : 12.6 MiB (0%)

  89. Title : CHT

  90. Language : Chinese

  91. Default : No

  92. Forced : No


  93. Text #3

  94. ID : 5

  95. Format : PGS

  96. Muxing mode : zlib

  97. Codec ID : S_HDMV/PGS

  98. Codec ID/Info : Picture based subtitle format used on BDs/HD-DVDs

  99. Duration : 1 h 22 min

  100. Bit rate : 40.5 kb/s

  101. Count of elements : 1677

  102. Stream size : 23.8 MiB (0%)

  103. Title : CHS&ENG

  104. Language : Chinese

  105. Default : No

  106. Forced : No


  107. Text #4

  108. ID : 6

  109. Format : PGS

  110. Muxing mode : zlib

  111. Codec ID : S_HDMV/PGS

  112. Codec ID/Info : Picture based subtitle format used on BDs/HD-DVDs

  113. Duration : 1 h 22 min

  114. Bit rate : 41.0 kb/s

  115. Count of elements : 1677

  116. Stream size : 24.0 MiB (0%)

  117. Title : CHT&ENG

  118. Language : Chinese

  119. Default : No

  120. Forced : No


  121. Menu

  122. 00:00:00.000 : en:Chapter 01

  123. 00:07:33.495 : en:Chapter 02

  124. 00:13:58.004 : en:Chapter 03

  125. 00:23:24.403 : en:Chapter 04

  126. 00:30:05.637 : en:Chapter 05

  127. 00:38:52.038 : en:Chapter 06

  128. 00:46:03.636 : en:Chapter 07

  129. 00:51:56.905 : en:Chapter 08

  130. 00:58:48.066 : en:Chapter 09

  131. 01:05:08.613 : en:Chapter 10

  132. 01:10:35.231 : en:Chapter 11

  133. 01:17:50.624 : en:Chapter 12

文件下载


除非特别注明,本文『灵偶契约2[中文字幕].Brahms.The.Boy.II.2020.2160p.HDR.UHD.迅雷下载 12.49GB』来源于互联网机器人自动抓取,非本站原创。 浮游电影网不对本文拥有版权,如有侵犯,请联系邮箱:fuyouu#yandex.com[#换成@]投诉。我们会在15个工作日内删除。 但烦请转载时请标明出处:“本文转载于『浮游电影网』,原文地址:https://www.fuyouu.com/12751.html

评论吧骚年!

发表你的见解   

昵称*

E-mail*(建议输入,以便收到博主回复的提示邮件)

验证码*

您可以使用eMule或eMule Mod(Windows)、aMule(Win、Linux、Mac)等软件下载eD2k链接。。
eMule收藏集(.emulecollection)文件是您选中的所有链接的列表文件。eMule可以直接下载它们。
按住SHIFT键选择可以选中多个选择框。
可用文件名和大小选择器来选择文件。
文件名选择器帮您根据文件名称或后缀来选择文件。不分大小写。
符号使用:
和:空格( )、+
不包含:-
或:|
转义:一对英文引号("");
匹配开头:^
匹配结尾:$
例如:
选中所有名称中包含有“eMule”或“0.49c”字眼,但不包含有“exe”字眼的:emule|0.49c -exe
选中所有名称的开头是“eMule”,结尾是“0.49c”的:^emule 0.49c$
选中所有名称中带有“eMule 0.49c”的(必须是“eMule 0.49c”,中间没有别的字符,不能是“eMule fake 0.49c”),需要转义:"emule 0.49c"
大小选择器帮您根据文件大小选择文件。