当前位置: 首页 >> 欧美电影 >> 蛛丝马迹[中文字幕].The.Little.Things.2021.1080p.BluRay.迅雷下载 6.76GB >> 正文

蛛丝马迹[中文字幕].The.Little.Things.2021.1080p.BluRay.迅雷下载 6.76GB

2021年06月28日 20:24:10     电影发布:来源于网络     电影分类:欧美电影     评论(0)    

蛛丝马迹[中文字幕].The.Little.Things.2021.1080p.BluRay.迅雷下载 6.76GB 犯罪片 惊悚片 剧情片 欧美电影 第1张

◎译 名 蛛丝马迹 / 蛛尸马迹(港) / 细物警探(台) / 小细节 / 小东西 / 小事

◎片 名 The Little Things

◎年 代 2021

◎产 地 美国

◎类 别 剧情 / 惊悚 / 犯罪

◎语 言 英语

◎上映日期 2021-01-29(美国)

◎IMDb链接 https://www.imdb.com/title/tt10016180/

◎豆瓣评分 6.5/10 (7446人评价)

◎豆瓣链接 https://movie.douban.com/subject/30489388/

◎片 长 127分钟

◎导 演 约翰·李·汉考克 John Lee Hancock (id:1285940)

◎编 剧 约翰·李·汉考克 John Lee Hancock (id:1285940)

◎演 员 丹泽尔·华盛顿 Denzel Washington (id:1054431)

拉米·马雷克 Rami Malek (id:1044903)

杰瑞德·莱托 Jared Leto (id:1013764)

克里斯·鲍尔 Chris Bauer (id:1067002)

迈克尔·凯悦 Michael Hyatt (id:1448903)

特里·金尼 Terry Kinney (id:1004726)

娜塔丽·莫瑞丝 Natalie Morales (id:1274375)

伊莎贝尔·阿雷扎 Isabel Arraiza (id:1448902)

乔利斯·贾斯基 Joris Jarsky (id:1106912)

格伦·莫肖尔 Glenn Morshower (id:1048193)

苏菲亚·威希涅瓦 Sofia Vassilieva (id:1027170)

杰森·詹姆斯·里希特 Jason James Richter (id:1004713)

约翰·哈伦·金 John Harlan Kim (id:1363211)

弗雷德里克·凯勒 Frederick Koehler (id:1105141)

朱迪斯·斯科特 Judith Scott (id:1318874)

玛雅·卡赞 Maya Kazan (id:1344005)

奥利维亚·华盛顿 Olivia Washington (id:1268695)

基夫·范登·霍伊维尔 Kiff Vanden Heuvel (id:1150551)

J.唐宁 J. Downing (id:1328853)

托马斯·克劳福德 Thomas Crawford (id:1067484)

利纳拉·华盛顿 Linara Washington (id:1345085)

杰夫·科贝特 Jeff Corbett (id:1371172)

斯蒂芬妮·埃尔布 Stephanie Erb (id:1332834)

萨曼莎·科尔米耶 Samantha Cormier (id:1418966)

李·加林顿 Lee Garlington (id:1091296)

迪米特·D·马里诺夫 Dimiter D. Marinov (id:1406427)

朱莉娅·维拉 Julia Vera (id:1300005)

杰克·托帕利安 Jack Topalian (id:1412615)

查理·塞斯顿 Charlie Saxton (id:1325348)

埃姆利·贝赫什蒂 Emil Beheshti (id:1182873)

汉克·诺思罗普 Hank Northrop (id:1345335)

亚当·哈林顿 Adam Harrington (id:1100389)

凯莉·奥马利 Kerry O'Malley (id:1328847)

汤姆·休斯 Tom Hughes (id:1274552)

约翰·李·汉考克 John Lee Hancock (id:1285940)

托马斯·纽曼 Thomas Newman (id:1027939)

约翰·施瓦兹曼 John Schwartzman (id:1027646)

◎标 签 犯罪 / 悬疑 / 美国 / 2021 / 惊悚 / 人性 / 剧情 / 破案

◎简 介

克恩郡巡警乔狄肯,小名狄克(丹泽尔·华盛顿饰),被派往洛杉矶进行本该是趟简单明快的证据收集任务。取而代之的是,他被卷入一场缉捕正肆虐该市的连环杀手之行动。领导缉捕的是洛杉矶郡警长吉姆贝克斯特(拉米·马雷克饰),对狄克的警察直觉大为惊艳,因而私自寻求他的协助。

但在两人追踪主要嫌疑人艾伯特史帕玛(杰瑞德·莱托饰)时,贝克斯特浑然不觉该调查勾起了狄克对过去不愉快的回忆,随之出土的黑暗秘密除了威胁案件调查外,可能牵连更剧。

◎获奖情况 (共2项)

第78届金球奖 (2021)

电影类 最佳男配角(提名)

└──杰瑞德·莱托 (id:1013764)

第27届美国演员工会奖 (2021)

电影奖 最佳男配角(提名)

└──杰瑞德·莱托 (id:1013764)

  1. General

  2. Unique ID : 231686284191762182924182211357583452948 (0xAE4D27BDFF34B1E36230683D6F7DAB14)

  3. Complete name : The.Little.Things.2021.1080p.BluRay.DTS.x265-10bit-HDS.mkv

  4. Format : Matroska

  5. Format version : Version 4

  6. File size : 6.76 GiB

  7. Duration : 2 h 7 min

  8. Overall bit rate : 7 574 kb/s

  9. Movie name : The Little Things 2021 1080p BluRay DTS x265-10bit-HDS

  10. Encoded date : UTC 2021-06-24 23:27:59

  11. Writing application : mkvmerge v38.0.0 ('The Silent Type') 64-bit

  12. Writing library : libebml v1.3.9 + libmatroska v1.5.2


  13. Video

  14. ID : 1

  15. Format : HEVC

  16. Format/Info : High Efficiency Video Coding

  17. Format profile : Main 10@L5.1@High

  18. Codec ID : V_MPEGH/ISO/HEVC

  19. Duration : 2 h 7 min

  20. Bit rate : 6 015 kb/s

  21. Width : 1 920 pixels

  22. Height : 804 pixels

  23. Display aspect ratio : 2.40:1

  24. Frame rate mode : Constant

  25. Frame rate : 23.976 (24000/1001/53354) FPS

  26. Color space : YUV

  27. Chroma subsampling : 4:2:0

  28. Bit depth : 10 bits

  29. Bits/(Pixel*Frame) : 0.163

  30. Stream size : 5.37 GiB (79%)

  31. Title : howfuckedareyounow@HDSky

  32. Writing library : x265 - H.265/HEVC codec

  33. Default : Yes

  34. Forced : No


  35. Audio

  36. ID : 2

  37. Format : DTS

  38. Format/Info : Digital Theater Systems

  39. Codec ID : A_DTS

  40. Duration : 2 h 7 min

  41. Bit rate mode : Constant

  42. Bit rate : 1 509 kb/s

  43. Channel(s) : 6 channels

  44. Channel layout : C L R Ls Rs LFE

  45. Sampling rate : 48.0 kHz

  46. Frame rate : 93.750 FPS (512 SPF)

  47. Bit depth : 24 bits

  48. Compression mode : Lossy

  49. Stream size : 1.35 GiB (20%)

  50. Title : English

  51. Language : English

  52. Default : Yes

  53. Forced : No


  54. Text #1

  55. ID : 3

  56. Format : PGS

  57. Muxing mode : zlib

  58. Codec ID : S_HDMV/PGS

  59. Codec ID/Info : Picture based subtitle format used on BDs/HD-DVDs

  60. Duration : 2 h 7 min

  61. Bit rate : 26.4 kb/s

  62. Count of elements : 2642

  63. Stream size : 24.0 MiB (0%)

  64. Title : CHS

  65. Language : Chinese

  66. Default : Yes

  67. Forced : No


  68. Text #2

  69. ID : 4

  70. Format : PGS

  71. Muxing mode : zlib

  72. Codec ID : S_HDMV/PGS

  73. Codec ID/Info : Picture based subtitle format used on BDs/HD-DVDs

  74. Duration : 2 h 6 min

  75. Bit rate : 25.9 kb/s

  76. Count of elements : 2484

  77. Stream size : 23.5 MiB (0%)

  78. Title : CHT

  79. Language : Chinese

  80. Default : No

  81. Forced : No


  82. Text #3

  83. ID : 5

  84. Format : PGS

  85. Muxing mode : zlib

  86. Codec ID : S_HDMV/PGS

  87. Codec ID/Info : Picture based subtitle format used on BDs/HD-DVDs

  88. Duration : 2 h 7 min

  89. Bit rate : 21.8 kb/s

  90. Count of elements : 2629

  91. Stream size : 19.9 MiB (0%)

  92. Title : CHT

  93. Language : Chinese

  94. Default : No

  95. Forced : No


  96. Text #4

  97. ID : 6

  98. Format : PGS

  99. Muxing mode : zlib

  100. Codec ID : S_HDMV/PGS

  101. Codec ID/Info : Picture based subtitle format used on BDs/HD-DVDs

  102. Duration : 2 h 2 min

  103. Bit rate : 30.9 kb/s

  104. Count of elements : 3090

  105. Stream size : 27.0 MiB (0%)

  106. Title : ENG

  107. Language : English

  108. Default : No

  109. Forced : No


  110. Menu

  111. 00:00:00.000 : en:Chapter 01

  112. 00:04:14.296 : en:Chapter 02

  113. 00:13:18.715 : en:Chapter 03

  114. 00:23:18.022 : en:Chapter 04

  115. 00:31:38.897 : en:Chapter 05

  116. 00:40:27.592 : en:Chapter 06

  117. 00:49:16.996 : en:Chapter 07

  118. 00:58:38.348 : en:Chapter 08

  119. 01:07:12.695 : en:Chapter 09

  120. 01:15:27.898 : en:Chapter 10

  121. 01:25:12.941 : en:Chapter 11

  122. 01:34:59.485 : en:Chapter 12

  123. 01:44:32.183 : en:Chapter 13

  124. 01:51:47.075 : en:Chapter 14

  125. 01:56:24.436 : en:Chapter 15

  126. 02:02:34.556 : en:Chapter 16

文件下载


除非特别注明,本文『蛛丝马迹[中文字幕].The.Little.Things.2021.1080p.BluRay.迅雷下载 6.76GB』来源于互联网机器人自动抓取,非本站原创。 浮游电影网不对本文拥有版权,如有侵犯,请联系邮箱:fuyouu#yandex.com[#换成@]投诉。我们会在15个工作日内删除。 但烦请转载时请标明出处:“本文转载于『浮游电影网』,原文地址:https://www.fuyouu.com/12750.html

评论吧骚年!

发表你的见解   

昵称*

E-mail*(建议输入,以便收到博主回复的提示邮件)

验证码*

您可以使用eMule或eMule Mod(Windows)、aMule(Win、Linux、Mac)等软件下载eD2k链接。。
eMule收藏集(.emulecollection)文件是您选中的所有链接的列表文件。eMule可以直接下载它们。
按住SHIFT键选择可以选中多个选择框。
可用文件名和大小选择器来选择文件。
文件名选择器帮您根据文件名称或后缀来选择文件。不分大小写。
符号使用:
和:空格( )、+
不包含:-
或:|
转义:一对英文引号("");
匹配开头:^
匹配结尾:$
例如:
选中所有名称中包含有“eMule”或“0.49c”字眼,但不包含有“exe”字眼的:emule|0.49c -exe
选中所有名称的开头是“eMule”,结尾是“0.49c”的:^emule 0.49c$
选中所有名称中带有“eMule 0.49c”的(必须是“eMule 0.49c”,中间没有别的字符,不能是“eMule fake 0.49c”),需要转义:"emule 0.49c"
大小选择器帮您根据文件大小选择文件。