当前位置: 首页 >> 欧美电影 >> 哥斯拉大战金刚[国英语音轨/中文字幕].Godzilla.vs.Kong.2021.2160p.4K迅雷下载 17.15GB >> 正文

哥斯拉大战金刚[国英语音轨/中文字幕].Godzilla.vs.Kong.2021.2160p.4K迅雷下载 17.15GB

2021年06月28日 08:59:49     电影发布:来源于网络     电影分类:欧美电影     评论(0)    

哥斯拉大战金刚[国英语音轨/中文字幕].Godzilla.vs.Kong.2021.2160p.4K迅雷下载 17.15GB 科幻片 冒险片 动作片 欧美电影  第1张

◎译 名 哥斯拉大战金刚 / 金刚大战哥斯拉 / 哥吉拉大战金刚(台) / King Kong vs. Godzilla / GvK

◎片 名 Godzilla vs Kong

◎年 代 2021

◎产 地 美国 / 澳大利亚 / 加拿大 / 印度

◎类 别 动作 / 科幻 / 冒险

◎语 言 英语 / 美国手语

◎上映日期 2021-03-26(中国大陆) / 2021-03-24(中国台湾) / 2021-03-31(美国)

◎IMDb链接 https://www.imdb.com/title/tt5034838/

◎豆瓣评分 6.4/10 (226512人评价)

◎豆瓣链接 https://movie.douban.com/subject/26613692/

◎片 长 113分钟

◎导 演 亚当·温加德 Adam Wingard (id:1306635)

◎编 剧 特里·鲁西奥 Terry Rossio (id:1009677)

埃里克·皮尔森 Eric Pearson (id:1383481)

麦克思·鲍伦斯坦 Max Borenstein (id:1306812)

迈克尔·道赫蒂 Michael Dougherty (id:1041313)

扎克·希尔兹 Zach Shields (id:1353331)

◎演 员 亚历山大·斯卡斯加德 Alexander Skarsg?rd (id:1049485)

米莉·波比·布朗 Millie Bobby Brown (id:1360134)

丽贝卡·豪尔 Rebecca Hall (id:1044871)

凯莉·霍特尔 Kaylee Hottle (id:1454136)

布莱恩·泰里·亨利 Brian Tyree Henry (id:1390623)

小栗旬 Shun Oguri (id:1014229)

艾莎·冈萨雷斯 Eiza González (id:1233270)

朱利安·迪尼森 Julian Dennison (id:1362593)

兰斯·莱迪克 Lance Reddick (id:1013902)

凯尔·钱德勒 Kyle Chandler (id:1049607)

德米安·比齐尔 Demián Bichir (id:1022762)

哈基姆·凯-卡西姆 Hakeem Kae-Kazim (id:1109510)

钱信伊 Ronny Chieng (id:1392949)

约翰·皮鲁切洛 John Pirruccello (id:1365375)

克里斯·乔克 Chris Chalk (id:1331415)

康兰·卡萨尔 Conlan Casal (id:1394997)

布拉德·麦克默里 Brad McMurray (id:1185684)

本杰明·里格比 Benjamin Rigby (id:1355648)

普里西拉·道伊西 Priscilla Doueihy (id:1441004)

戴维·卡斯蒂洛 David Castillo (id:1070625)

吉姆·帕尔默 Jim Palmer (id:1293854)

柯蒂斯·布什 Curtis Bush (id:1171488)

皮拉·福德 Piéra Forde (id:1373797)

爱丽丝·兰斯伯里 Alice Lanesbury (id:1406294)

肖恩·麦克布莱德 Shawn McBride (id:1406484)

乔尔·皮尔斯 Joel Pierce (id:1446081)

乔恩·奎斯蒂德 Jon Quested (id:1406303)

塔斯尼姆·罗克 Tasneem Roc (id:1137915)

艾梅伯·瓦尔斯 Amber Walls (id:1419460)

迪索·拉莫斯 Diezel Ramos (id:1341036)

田中圭 Kei Tanaka (id:1011150)

渡边谦 Ken Watanabe (id:1027181)

玛丽·帕伦特 Mary Parent (id:1355115)

亚历克斯·加西亚 Alex Garcia (id:1198815)

艾瑞克·麦克勒德 Eric McLeod (id:1450770)

布莱恩·罗杰斯 Brian Rogers (id:1450771)

奥平谦二 Kenji Okuhira (id:1450774)

坂野义光 Yoshimitsu Banno (id:1450775)

乔·贾希尼 Jon Jashni (id:1348224)

托马斯·图尔 Thomas Tull (id:1348364)

杰伊·阿申菲尔特 Jay Ashenfelter (id:1450772)

赫伯特·W·吉恩斯 Herbert W. Gains (id:1450773)

林单 Dan Lin (id:1429091)

罗伊·李 Roy Lee (id:1000791)

琼基·XL Junkie XL (id:1037776)

本·塞雷森 Ben Seresin (id:1434113)

乔希·谢弗 Josh Schaeffer (id:1387781)

萨拉·芬兰 Sarah Finn (id:1283741)

托马斯·S·哈默克 Thomas S. Hammock (id:1308557)

欧文·帕特森 Owen Paterson (id:1294078)

比尔·布斯 Bill Booth (id:1406319)

米歇尔·麦加希 Michelle McGahey (id:1291569)

哈里·E·奥托 Harry E. Otto (id:1293729)

道恩·斯维德斯基 Dawn Swiderski (id:1298734)

罗纳德·R·赖斯 Ronald R. Reiss (id:1424259)

安·弗利 Ann Foley (id:1450776)

约翰·德斯贾尔丁 John 'D.J.' Des Jardin (id:1282276)

◎标 签 怪兽 / 哥斯拉 / 科幻 / 金刚 / 美国 / 动作 / 2021 / 奇幻

◎简 介

这两位宛如神衹一般强大的对手于一场壮观的战争中相遇,彼时世界命运正悬于一线。为了找到真正的家园,金刚与他的保护者们踏上了一次艰难的旅程。与他们一道前行的还有一个年轻的孤儿女孩——吉雅,这个女孩与金刚之间存在着一种独特而强大的紧密联系。但意想不到的是,他们在前行的航道上与愤怒的哥斯拉狭路相逢,也由此在全球引起了一系列破坏。一股无形的力量造成了这两只巨兽之间的巨大冲突,深藏在地心深处的奥秘也由此揭开。

  1. General

  2. Unique ID : 309008373511633414579920937403040672465 (0xE878D913FCF7B306086540175F882AD1)

  3. Complete name : Godzilla.vs.Kong.2021.2160p.HDR.UHD.BluRay.TrueHD.7.1.Atmos.2Audio.x265-10bit-HDS.mkv

  4. Format : Matroska

  5. Format version : Version 4

  6. File size : 17.2 GiB

  7. Duration : 1 h 53 min

  8. Overall bit rate mode : Variable

  9. Overall bit rate : 21.7 Mb/s

  10. Movie name : Godzilla vs Kong 2021 2160p HDR UHD BluRay TrueHD 7.1 Atmos 2Audio x265-10bit-HDS

  11. Encoded date : UTC 2021-06-17 15:26:15

  12. Writing application : mkvmerge v38.0.0 ('The Silent Type') 64-bit

  13. Writing library : libebml v1.3.9 + libmatroska v1.5.2


  14. Video

  15. ID : 1

  16. Format : HEVC

  17. Format/Info : High Efficiency Video Coding

  18. Format profile : Main 10@L5.1@High

  19. HDR format : SMPTE ST 2086, HDR10 compatible

  20. Codec ID : V_MPEGH/ISO/HEVC

  21. Duration : 1 h 53 min

  22. Bit rate : 12.3 Mb/s

  23. Width : 3 840 pixels

  24. Height : 1 608 pixels

  25. Display aspect ratio : 2.40:1

  26. Frame rate mode : Constant

  27. Frame rate : 23.976 (24000/1001/53354) FPS

  28. Color space : YUV

  29. Chroma subsampling : 4:2:0

  30. Bit depth : 10 bits

  31. Bits/(Pixel*Frame) : 0.083

  32. Stream size : 9.75 GiB (57%)

  33. Title : @HDSky

  34. Writing library : x265 - H.265/HEVC codec

  35. Default : Yes

  36. Forced : No

  37. Color range : Limited

  38. Color primaries : BT.2020

  39. Transfer characteristics : PQ

  40. Matrix coefficients : BT.2020 non-constant

  41. Mastering display color primaries : Display P3

  42. Mastering display luminance : min: 0.0020 cd/m2, max: 1000 cd/m2

  43. Maximum Content Light Level : 739 cd/m2

  44. Maximum Frame-Average Light Level : 331 cd/m2


  45. Audio #1

  46. ID : 2

  47. Format : MLP FBA 16-ch

  48. Format/Info : Meridian Lossless Packing FBA with 16-channel presentation

  49. Commercial name : Dolby TrueHD with Dolby Atmos

  50. Codec ID : A_TRUEHD

  51. Duration : 1 h 53 min

  52. Bit rate mode : Variable

  53. Bit rate : 3 455 kb/s

  54. Maximum bit rate : 5 742 kb/s

  55. Channel(s) : 8 channels

  56. Channel layout : L R C LFE Ls Rs Lb Rb

  57. Sampling rate : 48.0 kHz

  58. Frame rate : 1 200.000 FPS (40 SPF)

  59. Compression mode : Lossless

  60. Stream size : 2.73 GiB (16%)

  61. Title : English

  62. Language : English

  63. Default : Yes

  64. Forced : No

  65. Number of dynamic objects : 11

  66. Bed channel count : 1 channel

  67. Bed channel configuration : LFE


  68. Audio #2

  69. ID : 3

  70. Format : DTS XLL

  71. Format/Info : Digital Theater Systems

  72. Commercial name : DTS-HD Master Audio

  73. Codec ID : A_DTS

  74. Duration : 1 h 53 min

  75. Bit rate mode : Variable

  76. Bit rate : 5 762 kb/s

  77. Channel(s) : 8 channels

  78. Channel layout : C L R LFE Lb Rb Lss Rss

  79. Sampling rate : 48.0 kHz

  80. Frame rate : 93.750 FPS (512 SPF)

  81. Bit depth : 24 bits

  82. Compression mode : Lossless

  83. Stream size : 4.55 GiB (27%)

  84. Title : Mandarin

  85. Language : Chinese

  86. Default : No

  87. Forced : No


  88. Text #1

  89. ID : 4

  90. Format : PGS

  91. Muxing mode : zlib

  92. Codec ID : S_HDMV/PGS

  93. Codec ID/Info : Picture based subtitle format used on BDs/HD-DVDs

  94. Duration : 1 h 44 min

  95. Bit rate : 23.1 kb/s

  96. Count of elements : 1740

  97. Stream size : 17.3 MiB (0%)

  98. Title : CHT

  99. Language : Chinese

  100. Default : Yes

  101. Forced : No


  102. Text #2

  103. ID : 5

  104. Format : PGS

  105. Muxing mode : zlib

  106. Codec ID : S_HDMV/PGS

  107. Codec ID/Info : Picture based subtitle format used on BDs/HD-DVDs

  108. Duration : 1 h 52 min

  109. Bit rate : 19.0 kb/s

  110. Count of elements : 1794

  111. Stream size : 15.2 MiB (0%)

  112. Title : CHT

  113. Language : Chinese

  114. Default : No

  115. Forced : No


  116. Text #3

  117. ID : 6

  118. Format : PGS

  119. Muxing mode : zlib

  120. Codec ID : S_HDMV/PGS

  121. Codec ID/Info : Picture based subtitle format used on BDs/HD-DVDs

  122. Duration : 1 h 46 min

  123. Bit rate : 22.6 kb/s

  124. Count of elements : 1746

  125. Stream size : 17.2 MiB (0%)

  126. Title : CHS

  127. Language : Chinese

  128. Default : No

  129. Forced : No


  130. Text #4

  131. ID : 7

  132. Format : PGS

  133. Muxing mode : zlib

  134. Codec ID : S_HDMV/PGS

  135. Codec ID/Info : Picture based subtitle format used on BDs/HD-DVDs

  136. Duration : 1 h 46 min

  137. Bit rate : 23.3 kb/s

  138. Count of elements : 1746

  139. Stream size : 17.7 MiB (0%)

  140. Title : CHT

  141. Language : Chinese

  142. Default : No

  143. Forced : No


  144. Text #5

  145. ID : 8

  146. Format : PGS

  147. Muxing mode : zlib

  148. Codec ID : S_HDMV/PGS

  149. Codec ID/Info : Picture based subtitle format used on BDs/HD-DVDs

  150. Duration : 1 h 46 min

  151. Bit rate : 36.4 kb/s

  152. Count of elements : 1747

  153. Stream size : 27.6 MiB (0%)

  154. Title : CHS&ENG

  155. Language : Chinese

  156. Default : No

  157. Forced : No


  158. Text #6

  159. ID : 9

  160. Format : PGS

  161. Muxing mode : zlib

  162. Codec ID : S_HDMV/PGS

  163. Codec ID/Info : Picture based subtitle format used on BDs/HD-DVDs

  164. Duration : 1 h 46 min

  165. Bit rate : 37.1 kb/s

  166. Count of elements : 1747

  167. Stream size : 28.1 MiB (0%)

  168. Title : CHT&ENG

  169. Language : Chinese

  170. Default : No

  171. Forced : No


  172. Menu

  173. 00:00:00.000 : en:Chapter 01

  174. 00:09:51.591 : en:Chapter 02

  175. 00:20:07.497 : en:Chapter 03

  176. 00:29:02.365 : en:Chapter 04

  177. 00:38:39.733 : en:Chapter 05

  178. 00:49:15.994 : en:Chapter 06

  179. 00:57:17.016 : en:Chapter 07

  180. 01:09:07.976 : en:Chapter 08

  181. 01:18:33.875 : en:Chapter 09

  182. 01:30:06.109 : en:Chapter 10

  183. 01:41:58.945 : en:Chapter 11


文件下载


除非特别注明,本文『哥斯拉大战金刚[国英语音轨/中文字幕].Godzilla.vs.Kong.2021.2160p.4K迅雷下载 17.15GB』来源于互联网机器人自动抓取,非本站原创。 浮游电影网不对本文拥有版权,如有侵犯,请联系邮箱:fuyouu#yandex.com[#换成@]投诉。我们会在15个工作日内删除。 但烦请转载时请标明出处:“本文转载于『浮游电影网』,原文地址:https://www.fuyouu.com/12727.html

评论吧骚年!

发表你的见解   

昵称*

E-mail*(建议输入,以便收到博主回复的提示邮件)

验证码*

您可以使用eMule或eMule Mod(Windows)、aMule(Win、Linux、Mac)等软件下载eD2k链接。。
eMule收藏集(.emulecollection)文件是您选中的所有链接的列表文件。eMule可以直接下载它们。
按住SHIFT键选择可以选中多个选择框。
可用文件名和大小选择器来选择文件。
文件名选择器帮您根据文件名称或后缀来选择文件。不分大小写。
符号使用:
和:空格( )、+
不包含:-
或:|
转义:一对英文引号("");
匹配开头:^
匹配结尾:$
例如:
选中所有名称中包含有“eMule”或“0.49c”字眼,但不包含有“exe”字眼的:emule|0.49c -exe
选中所有名称的开头是“eMule”,结尾是“0.49c”的:^emule 0.49c$
选中所有名称中带有“eMule 0.49c”的(必须是“eMule 0.49c”,中间没有别的字符,不能是“eMule fake 0.49c”),需要转义:"emule 0.49c"
大小选择器帮您根据文件大小选择文件。