当前位置: 首页 >> 动画电影 >> 心灵奇旅[中文字幕].4k蓝光.迅雷下载.Soul.2020.UHD.BluRay.2160p >> 正文

心灵奇旅[中文字幕].4k蓝光.迅雷下载.Soul.2020.UHD.BluRay.2160p

2021年06月22日 22:24:59     电影发布:来源于网络     电影分类:动画电影     评论(0)    

心灵奇旅[中文字幕].4k蓝光.迅雷下载.Soul.2020.UHD.BluRay.2160p 音乐片 动画片 奇幻片 动画电影  第1张

◎译 名 心灵奇旅 / 灵魂奇遇记(港) / 灵魂急转弯(台) / 灵魂 / 心灵

◎片 名 Soul

◎年 代 2020

◎产 地 美国

◎类 别 动画 / 音乐 / 奇幻

◎语 言 英语

◎上映日期 2020-12-25(中国大陆/美国网络) / 2020-10-11(伦敦电影节)

◎IMDb链接 https://www.imdb.com/title/tt2948372/

◎豆瓣评分 8.8/10 (685256人评价)

◎豆瓣链接 https://movie.douban.com/subject/24733428/

◎片 长 101分钟

◎导 演 彼特·道格特 Pete Docter (id:1022803)

凯普·鲍尔斯 Kemp Powers (id:1381986)

◎编 剧 彼特·道格特 Pete Docter (id:1022803)

麦克·琼斯 Mike Jones (id:1440274)

凯普·鲍尔斯 Kemp Powers (id:1381986)

◎演 员 杰米·福克斯 Jamie Foxx (id:1036329)

蒂娜·菲 Tina Fey (id:1044730)

菲利西亚·拉斯海德 Phylicia Rashad (id:1146675)

阿米尔-卡利布·汤普森 Ahmir-Khalib Thompson (id:1155320)

戴维德·迪格斯 Daveed Diggs (id:1370143)

格拉汉姆·诺顿 Graham Norton (id:1000398)

瑞切尔·豪斯 Rachel House (id:1364823)

艾莉丝·布拉加 Alice Braga (id:1000057)

理查德·艾欧阿德 Richard Ayoade (id:1274320)

唐尼尔·罗林斯 Donnell Rawlings (id:1320070)

安吉拉·贝塞特 Angela Bassett (id:1025214)

马戈·霍尔 Margo Hall (id:1404272)

罗德莎·琼斯 Rhodessa Jones (id:1449113)

韦斯·斯塔迪 Wes Studi (id:1036366)

沙基纳·贾弗里 Sakina Jaffrey (id:1104745)

福琼·费姆斯特 Fortune Feimster (id:1402820)

卡鲁姆·格兰特 Calum Grant (id:1285296)

泽诺比娅·谢罗夫 Zenobia Shroff (id:1376741)

朱恩·斯奎布 June Squibb (id:1154489)

凯茜·卡瓦蒂妮 Cathy Cavadini (id:1071962)

罗纳尔多·德尔·卡门 Ronaldo Del Carmen (id:1282165)

Elisapie Isaac (id:1406987)

杰森·佩斯 Jason Pace (id:1134264)

科拉·尚波米耶 Cora Champommier (id:1449114)

约翰·拉岑贝格 John Ratzenberger (id:1002680)

彼特·道格特 Pete Docter (id:1022803)

戴娜·默里 Dana Murray (id:1387607)

乔纳森·巴蒂斯特 Jonathan Batiste (id:1443343)

特伦特·雷诺 Trent Reznor (id:1045152)

阿提喀斯·罗斯 Atticus Ross (id:1307714)

凯文·诺尔廷 Kevin Nolting (id:1293321)

◎标 签 皮克斯 / 成长 / 迪士尼 / 动画 / 动画电影 / 美国 / 2020 / Pixar

◎简 介

究竟是什么塑造了真正的你?电影将聚焦乔伊·高纳(杰米·福克斯配音)。这位中学音乐老师获得了梦寐以求的机会——在纽约最好的爵士俱乐部演奏。但一个小失误把他从纽约的街道带到了一个奇幻的地方“生之来处”(theGreatBefore)。在那里,灵魂们获得培训,在前往地球之前将获得他们的个性特点和兴趣。决心要回到地球生活的乔伊认识了一个早熟的灵魂“二十二”(蒂娜·菲配音),二十二一直找不到自己对于人类生活的兴趣。随着乔伊不断试图向二十二展示生命的精彩之处,他也将领悟一些人生终极问题的答案。

◎获奖情况 (共43项)

第73届戛纳电影节 (2020)

动画片(提名)

第78届金球奖 (2021)

电影类 最佳动画长片

电影类 最佳原创配乐

第74届英国电影学院奖 (2021)

电影奖 最佳动画片

└──凯普·鲍尔斯 (id:1381986)

└──彼特·道格特 (id:1022803)

电影奖 最佳原创配乐

电影奖 最佳音效(提名)

第48届动画安妮奖 (2021)

最佳动画长片

最佳导演(提名)

└──凯普·鲍尔斯 (id:1381986)

└──彼特·道格特 (id:1022803)

最佳编剧

最佳配乐

最佳剪辑

最佳分镜

最佳艺术指导(提名)

最佳动画角色

最佳角色设计(提名)

最佳动画效果

第32届美国制片人工会奖 (2021)

最佳动画片制片人奖

第71届美国剪辑工会奖 (2021)

动画片最佳剪辑

└──凯文·诺尔廷 (id:1293321)

第25届美国艺术指导工会奖 (2021)

电影奖 最佳动画电影艺术指导(提名)

└──史蒂夫·皮尔彻 (id:1294535)

第68届美国音效剪辑协会奖 (2021)

金卷轴奖 最佳动画片音效剪辑

第19届美国视觉效果协会奖 (2021)

最佳动画电影视觉效果

最佳动画电影CG动画角色

最佳动画电影CG背景

最佳动画电影模拟动画效果

第57届美国声音效果协会奖 (2021)

动画电影最佳音效

第92届美国国家评论协会奖 (2020)

最佳动画片

年度佳片

第26届美国评论家选择电影奖 (2021)

最佳配乐

└──特伦特·雷诺 (id:1045152)

└──阿提喀斯·罗斯 (id:1307714)

└──乔纳森·巴蒂斯特 (id:1443343)

第21届美国电影学会奖 (2020)

年度佳片

第25届金卫星奖 (2021)

电影部门 最佳动画片(提名)

电影部门 最佳原创剧本(提名)

└──麦克·琼斯 (id:1440274)

└──彼特·道格特 (id:1022803)

└──凯普·鲍尔斯 (id:1381986)

第41届伦敦影评人协会奖 (2021)

技术成就奖(提名)

└──彼特·道格特 (id:1022803)

第46届洛杉矶影评人协会奖 (2020)

最佳配乐

└──特伦特·雷诺 (id:1045152)

└──阿提喀斯·罗斯 (id:1307714)

最佳动画片(提名)

第33届芝加哥影评人协会奖 (2020)

最佳原创剧本(提名)

└──麦克·琼斯 (id:1440274)

└──彼特·道格特 (id:1022803)

└──凯普·鲍尔斯 (id:1381986)

最佳动画片(提名)

最佳原创配乐

└──特伦特·雷诺 (id:1045152)

└──阿提喀斯·罗斯 (id:1307714)

└──乔纳森·巴蒂斯特 (id:1443343)

第5届亚特兰大影评人协会奖 (2020)

十佳影片(提名)

最佳动画片

最佳原创配乐

└──特伦特·雷诺 (id:1045152)

└──阿提喀斯·罗斯 (id:1307714)

第24届美国在线影评人协会奖 (2021)

最佳影片(提名)

最佳原创配乐

└──特伦特·雷诺 (id:1045152)

└──阿提喀斯·罗斯 (id:1307714)

最佳动画片

  1. General

  2. Unique ID : 98051282082001018957427342455357685255 (0x49C3FD7242B74F418A056ACDCA1DBE07)

  3. Complete name : Soul.2020.UHD.BluRay.2160p.10bit.HDR.3Audio.TrueHD(Atmos).7.1.DTS-HD.MA.7.1.x265-beAst.mkv

  4. Format : Matroska

  5. Format version : Version 4

  6. File size : 16.2 GiB

  7. Duration : 1 h 40 min

  8. Overall bit rate mode : Variable

  9. Overall bit rate : 23.1 Mb/s

  10. Movie name : Soul.2020.UHD.by.Wunder@beAst

  11. Encoded date : UTC 2021-04-29 07:28:43

  12. Writing application : mkvmerge v51.0.0 ('I Wish') 64-bit

  13. Writing library : libebml v1.4.0 + libmatroska v1.6.2

  14. Cover : Yes

  15. Attachments : cover.jpg


  16. Video

  17. ID : 1

  18. Format : HEVC

  19. Format/Info : High Efficiency Video Coding

  20. Format profile : Main 10@L5.1@High

  21. HDR format : SMPTE ST 2086, HDR10 compatible

  22. Codec ID : V_MPEGH/ISO/HEVC

  23. Duration : 1 h 40 min

  24. Bit rate : 11.2 Mb/s

  25. Width : 3 840 pixels

  26. Height : 1 608 pixels

  27. Display aspect ratio : 2.40:1

  28. Frame rate mode : Constant

  29. Frame rate : 23.976 (24000/1001/18649/53354) FPS

  30. Color space : YUV

  31. Chroma subsampling : 4:2:0 (Type 1)

  32. Bit depth : 10 bits

  33. Bits/(Pixel*Frame) : 0.075

  34. Stream size : 7.84 GiB (48%)

  35. Title : HEVC, x265Main10@L5.1@High, 24000/1001 fps @ 11283 kbps

  36. Writing library : x265 3.4+14-gd419c7152:[Windows][GCC 10.2.0][64 bit] 10bit

  37. Encoding settings : cpuid=53354186491111039 / frame-threads=3 / numa-pools=8 / wpp / no-pmode / no-pme / no-psnr / ssim / log-level=2 / input-csp=1 / input-res=3840x1608 / interlace=0 / total-frames=144645 / level-idc=51 / high-tier=1 / uhd-bd=0 / ref=4 / no-allow-non-conformance / repeat-headers / annexb / no-aud / hrd / info / hash=0 / no-temporal-layers / no-open-gop / min-keyint=23 / keyint=250 / gop-lookahead=0 / bframes=8 / b-adapt=2 / b-pyramid / bframe-bias=0 / rc-lookahead=40 / lookahead-slices=0 / MTg2NDk=uuDQuD2mJt9fsCf / NTMzNTQ=uuDQuD2mJt9fsCf / scenecut=40 / hist-scenecut=0 / radl=0 / no-splice / no-intra-refresh / ctu=64 / min-cu-size=8 / no-rect / no-amp / max-tu-size=32 / tu-inter-depth=3 / tu-intra-depth=3 / limit-tu=4 / rdoq-level=2 / dynamic-rd=0.00 / no-ssim-rd / signhide / no-tskip / nr-intra=0 / nr-inter=0 / no-constrained-intra / no-strong-intra-smoothing / max-merge=4 / limit-refs=1 / limit-modes / me=3 / subme=5 / merange=57 / temporal-mvp / no-frame-dup / no-hme / weightp / weightb / no-analyze-src-pics / deblock=-3:-3 / no-sao / no-sao-non-deblock / rd=4 / selective-sao=0 / no-early-skip / rskip / no-fast-intra / no-tskip-fast / no-cu-lossless / b-intra / no-splitrd-skip / rdpenalty=0 / psy-rd=2.00 / psy-rdoq=2.00 / no-rd-refine / no-lossless / cbqpoffs=0 / crqpoffs=0 / rc=crf / crf=23.0 / qcomp=0.65 / qpstep=4 / stats-write=0 / stats-read=0 / vbv-maxrate=160000 / vbv-bufsize=160000 / vbv-init=0.9 / crf-max=0.0 / crf-min=0.0 / ipratio=1.30 / pbratio=1.20 / aq-mode=3 / aq-strength=1.40 / no-cutree / zone-count=0 / no-strict-cbr / qg-size=32 / no-rc-grain / qpmax=69 / qpmin=0 / no-const-vbv / sar=0 / overscan=0 / videoformat=5 / range=0 / colorprim=9 / transfer=16 / colormatrix=9 / chromaloc=1 / chromaloc-top=1 / chromaloc-bottom=1 / display-window=0 / master-display=G(13250,34500)B(7500,3000)R(34000,16000)WP(15635,16450)L(10000000,0) / cll=0,0 / min-luma=0 / max-luma=1023 / log2-max-poc-lsb=8 / vui-timing-info / vui-hrd-info / slices=1 / no-opt-qp-pps / no-opt-ref-list-length-pps / no-multi-pass-opt-rps / scenecut-bias=0.05 / hist-threshold=0.03 / no-opt-cu-delta-qp / no-aq-motion / hdr10 / hdr10-opt / no-dhdr10-opt / no-idr-recovery-sei / analysis-reuse-level=0 / analysis-save-reuse-level=0 / analysis-load-reuse-level=0 / scale-factor=0 / refine-intra=0 / refine-inter=0 / refine-mv=1 / refine-ctu-distortion=0 / no-limit-sao / ctu-info=0 / no-lowpass-dct / refine-analysis-type=0 / copy-pic=1 / max-ausize-factor=1.0 / no-dynamic-refine / no-single-sei / no-hevc-aq / no-svt / no-field / qp-adaptation-range=1.00 / no-scenecut-aware-qpconformance-window-offsets / right=0 / bottom=0 / NTMzNTQ= / MTg2NDk= / decoder-max-rate=0

  38. Language : English

  39. Default : Yes

  40. Forced : No

  41. Color range : Limited

  42. Color primaries : BT.2020

  43. Transfer characteristics : PQ

  44. Matrix coefficients : BT.2020 non-constant

  45. Mastering display color primaries : Display P3

  46. Mastering display luminance : min: 0.0000 cd/m2, max: 1000 cd/m2


  47. Audio #1

  48. ID : 2

  49. ID in the original source medium : 4352 (0x1100)

  50. Format : MLP FBA 16-ch

  51. Format/Info : Meridian Lossless Packing FBA with 16-channel presentation

  52. Commercial name : Dolby TrueHD with Dolby Atmos

  53. Codec ID : A_TRUEHD

  54. Duration : 1 h 40 min

  55. Bit rate mode : Variable

  56. Bit rate : 5 763 kb/s

  57. Maximum bit rate : 9 087 kb/s

  58. Channel(s) : 8 channels

  59. Channel layout : L R C LFE Ls Rs Lb Rb

  60. Sampling rate : 48.0 kHz

  61. Frame rate : 1 200.000 FPS (40 SPF)

  62. Compression mode : Lossless

  63. Stream size : 4.05 GiB (25%)

  64. Title : English Dolby TrueHD(Atmos) Audio 7.1 @ 6403 kbps

  65. Language : English

  66. Default : Yes

  67. Forced : No

  68. Original source medium : Blu-ray

  69. Number of dynamic objects : 13

  70. Bed channel count : 1 channel

  71. Bed channel configuration : LFE


  72. Audio #2

  73. ID : 3

  74. ID in the original source medium : 4352 (0x1100)

  75. Format : AC-3

  76. Format/Info : Audio Coding 3

  77. Commercial name : Dolby Digital

  78. Codec ID : A_AC3

  79. Duration : 1 h 40 min

  80. Bit rate mode : Constant

  81. Bit rate : 640 kb/s

  82. Channel(s) : 6 channels

  83. Channel layout : L R C LFE Ls Rs

  84. Sampling rate : 48.0 kHz

  85. Frame rate : 31.250 FPS (1536 SPF)

  86. Compression mode : Lossy

  87. Stream size : 460 MiB (3%)

  88. Title : English Dolby Digital Audio 5.1 @ 640 kbps

  89. Language : English

  90. Service kind : Complete Main

  91. Default : No

  92. Forced : No

  93. Original source medium : Blu-ray


  94. Audio #3

  95. ID : 4

  96. Format : DTS XLL

  97. Format/Info : Digital Theater Systems

  98. Commercial name : DTS-HD Master Audio

  99. Codec ID : A_DTS

  100. Duration : 1 h 40 min

  101. Bit rate mode : Variable

  102. Bit rate : 4 442 kb/s

  103. Channel(s) : 8 channels

  104. Channel layout : C L R LFE Lb Rb Lss Rss

  105. Sampling rate : 48.0 kHz

  106. Frame rate : 93.750 FPS (512 SPF)

  107. Bit depth : 24 bits

  108. Compression mode : Lossless

  109. Stream size : 3.12 GiB (19%)

  110. Title : Mandarin DTS-HD Master Audio 7.1 @ 4442/1509 kbps 国配重混 by yifan88

  111. Language : Chinese

  112. Default : No

  113. Forced : No


  114. Audio #4

  115. ID : 5

  116. ID in the original source medium : 4358 (0x1106)

  117. Format : AC-3

  118. Format/Info : Audio Coding 3

  119. Commercial name : Dolby Digital

  120. Codec ID : A_AC3

  121. Duration : 1 h 40 min

  122. Bit rate mode : Constant

  123. Bit rate : 448 kb/s

  124. Channel(s) : 2 channels

  125. Channel layout : L R

  126. Sampling rate : 48.0 kHz

  127. Frame rate : 31.250 FPS (1536 SPF)

  128. Compression mode : Lossy

  129. Stream size : 322 MiB (2%)

  130. Title : Mandarin Dolby Digital Audio 5.1 @ 448kbps 台配国语

  131. Language : Chinese

  132. Service kind : Complete Main

  133. Default : No

  134. Forced : No

  135. Original source medium : Blu-ray


  136. Audio #5

  137. ID : 6

  138. ID in the original source medium : 4356 (0x1104)

  139. Format : AC-3

  140. Format/Info : Audio Coding 3

  141. Commercial name : Dolby Digital

  142. Codec ID : A_AC3

  143. Duration : 1 h 40 min

  144. Bit rate mode : Constant

  145. Bit rate : 320 kb/s

  146. Channel(s) : 2 channels

  147. Channel layout : L R

  148. Sampling rate : 48.0 kHz

  149. Frame rate : 31.250 FPS (1536 SPF)

  150. Compression mode : Lossy

  151. Stream size : 230 MiB (1%)

  152. Title : English Dolby Digital Audio 2.0 @ 320 kbps Visual Description

  153. Language : English

  154. Service kind : Complete Main

  155. Default : No

  156. Forced : No

  157. Original source medium : Blu-ray


  158. Text #1

  159. ID : 7

  160. ID in the original source medium : 4768 (0x12A0)

  161. Format : PGS

  162. Muxing mode : zlib

  163. Codec ID : S_HDMV/PGS

  164. Codec ID/Info : Picture based subtitle format used on BDs/HD-DVDs

  165. Duration : 1 h 40 min

  166. Bit rate : 51.2 kb/s

  167. Count of elements : 3710

  168. Stream size : 36.8 MiB (0%)

  169. Title : Eng/SUP

  170. Language : English

  171. Default : No

  172. Forced : No

  173. Original source medium : Blu-ray


  174. Text #2

  175. ID : 8

  176. ID in the original source medium : 4770 (0x12A2)

  177. Format : PGS

  178. Muxing mode : zlib

  179. Codec ID : S_HDMV/PGS

  180. Codec ID/Info : Picture based subtitle format used on BDs/HD-DVDs

  181. Duration : 1 h 40 min

  182. Bit rate : 36.1 kb/s

  183. Count of elements : 2168

  184. Stream size : 25.8 MiB (0%)

  185. Title : Chs/SUP 简体中文

  186. Language : Chinese

  187. Default : No

  188. Forced : No

  189. Original source medium : Blu-ray


  190. Text #3

  191. ID : 9

  192. ID in the original source medium : 4771 (0x12A3)

  193. Format : PGS

  194. Muxing mode : zlib

  195. Codec ID : S_HDMV/PGS

  196. Codec ID/Info : Picture based subtitle format used on BDs/HD-DVDs

  197. Duration : 1 h 40 min

  198. Bit rate : 36.9 kb/s

  199. Count of elements : 2168

  200. Stream size : 26.4 MiB (0%)

  201. Title : Cht/SUP 繁体中文

  202. Language : Chinese

  203. Default : No

  204. Forced : No

  205. Original source medium : Blu-ray


  206. Text #4

  207. ID : 10

  208. ID in the original source medium : 4772 (0x12A4)

  209. Format : PGS

  210. Muxing mode : zlib

  211. Codec ID : S_HDMV/PGS

  212. Codec ID/Info : Picture based subtitle format used on BDs/HD-DVDs

  213. Duration : 1 h 39 min

  214. Bit rate : 65.4 kb/s

  215. Count of elements : 2244

  216. Stream size : 46.7 MiB (0%)

  217. Title : Chs/SUP 简英双语字幕

  218. Language : Chinese

  219. Default : No

  220. Forced : No

  221. Original source medium : Blu-ray


  222. Text #5

  223. ID : 11

  224. ID in the original source medium : 4773 (0x12A5)

  225. Format : PGS

  226. Muxing mode : zlib

  227. Codec ID : S_HDMV/PGS

  228. Codec ID/Info : Picture based subtitle format used on BDs/HD-DVDs

  229. Duration : 1 h 39 min

  230. Bit rate : 65.4 kb/s

  231. Count of elements : 2244

  232. Stream size : 46.7 MiB (0%)

  233. Title : Cht/SUP 繁英双语字幕

  234. Language : Chinese

  235. Default : No

  236. Forced : No

  237. Original source medium : Blu-ray


  238. Text #6

  239. ID : 12

  240. ID in the original source medium : 4770 (0x12A2)

  241. Format : PGS

  242. Muxing mode : zlib

  243. Codec ID : S_HDMV/PGS

  244. Codec ID/Info : Picture based subtitle format used on BDs/HD-DVDs

  245. Duration : 1 h 39 min

  246. Bit rate : 31.6 kb/s

  247. Count of elements : 3098

  248. Stream size : 22.6 MiB (0%)

  249. Title : Chs/SUP R3 简体

  250. Language : Chinese

  251. Default : No

  252. Forced : No

  253. Original source medium : Blu-ray


  254. Text #7

  255. ID : 13

  256. ID in the original source medium : 4771 (0x12A3)

  257. Format : PGS

  258. Muxing mode : zlib

  259. Codec ID : S_HDMV/PGS

  260. Codec ID/Info : Picture based subtitle format used on BDs/HD-DVDs

  261. Duration : 1 h 39 min

  262. Bit rate : 31.4 kb/s

  263. Count of elements : 3098

  264. Stream size : 22.4 MiB (0%)

  265. Title : Cht/SUP R3繁体

  266. Language : Chinese

  267. Default : No

  268. Forced : No

  269. Original source medium : Blu-ray


  270. Text #8

  271. ID : 14

  272. Format : PGS

  273. Muxing mode : zlib

  274. Codec ID : S_HDMV/PGS

  275. Codec ID/Info : Picture based subtitle format used on BDs/HD-DVDs

  276. Duration : 1 h 40 min

  277. Bit rate : 146 kb/s

  278. Count of elements : 5277

  279. Stream size : 104 MiB (1%)

  280. Title : Chs/SUP 简英双语特效 by KKYY

  281. Language : Chinese

  282. Default : Yes

  283. Forced : No


  284. Menu

  285. 00:00:00.000 : en:第 01 章

  286. 00:03:32.336 : en:第 02 章

  287. 00:04:57.922 : en:第 03 章

  288. 00:08:43.188 : en:第 04 章

  289. 00:09:18.890 : en:第 05 章

  290. 00:11:49.332 : en:第 06 章

  291. 00:12:29.456 : en:第 07 章

  292. 00:15:03.568 : en:第 08 章

  293. 00:17:12.029 : en:第 09 章

  294. 00:18:24.685 : en:第 10 章

  295. 00:19:53.983 : en:第 11 章

  296. 00:21:29.663 : en:第 12 章

  297. 00:26:00.057 : en:第 13 章

  298. 00:29:47.785 : en:第 14 章

  299. 00:36:07.914 : en:第 15 章

  300. 00:38:22.382 : en:第 16 章

  301. 00:39:53.306 : en:第 17 章

  302. 00:41:55.804 : en:第 18 章

  303. 00:43:43.619 : en:第 19 章

  304. 00:44:29.166 : en:第 20 章

  305. 00:46:06.262 : en:第 21 章

  306. 00:49:38.181 : en:第 22 章

  307. 00:50:40.536 : en:第 23 章

  308. 00:51:28.126 : en:第 24 章

  309. 00:55:31.327 : en:第 25 章

  310. 00:56:59.791 : en:第 26 章

  311. 00:58:34.092 : en:第 27 章

  312. 01:00:31.793 : en:第 28 章

  313. 01:04:48.550 : en:第 29 章

  314. 01:07:53.360 : en:第 30 章

  315. 01:09:15.484 : en:第 31 章

  316. 01:12:33.974 : en:第 32 章

  317. 01:15:32.359 : en:第 33 章

  318. 01:17:23.637 : en:第 34 章

  319. 01:21:15.453 : en:第 35 章

  320. 01:22:57.805 : en:第 36 章

  321. 01:26:43.322 : en:第 37 章

  322. 01:28:32.305 : en:第 38 章

  323. 01:30:13.573 : en:第 39 章


文件下载


除非特别注明,本文『心灵奇旅[中文字幕].4k蓝光.迅雷下载.Soul.2020.UHD.BluRay.2160p』来源于互联网机器人自动抓取,非本站原创。 浮游电影网不对本文拥有版权,如有侵犯,请联系邮箱:fuyouu#yandex.com[#换成@]投诉。我们会在15个工作日内删除。 但烦请转载时请标明出处:“本文转载于『浮游电影网』,原文地址:https://www.fuyouu.com/12624.html

评论吧骚年!

发表你的见解   

昵称*

E-mail*(建议输入,以便收到博主回复的提示邮件)

验证码*

您可以使用eMule或eMule Mod(Windows)、aMule(Win、Linux、Mac)等软件下载eD2k链接。。
eMule收藏集(.emulecollection)文件是您选中的所有链接的列表文件。eMule可以直接下载它们。
按住SHIFT键选择可以选中多个选择框。
可用文件名和大小选择器来选择文件。
文件名选择器帮您根据文件名称或后缀来选择文件。不分大小写。
符号使用:
和:空格( )、+
不包含:-
或:|
转义:一对英文引号("");
匹配开头:^
匹配结尾:$
例如:
选中所有名称中包含有“eMule”或“0.49c”字眼,但不包含有“exe”字眼的:emule|0.49c -exe
选中所有名称的开头是“eMule”,结尾是“0.49c”的:^emule 0.49c$
选中所有名称中带有“eMule 0.49c”的(必须是“eMule 0.49c”,中间没有别的字符,不能是“eMule fake 0.49c”),需要转义:"emule 0.49c"
大小选择器帮您根据文件大小选择文件。