当前位置: 首页 >> 港台电影 >> 鼠胆龙威[国粤双语].迅雷下载.High Risk 1995 WEB-DL 4K >> 正文

鼠胆龙威[国粤双语].迅雷下载.High Risk 1995 WEB-DL 4K

2021年06月10日 10:37:00     电影发布:来源于网络     电影分类:港台电影     评论(0)    

鼠胆龙威[国粤双语].迅雷下载.High Risk 1995 WEB DL 4K 犯罪片 动作片 喜剧片 港台电影 第1张

◎译 名 鼠胆龙威 / High Risk / Meltdown / Terror en Hong Kong

◎片 名 鼠膽龍威

◎年 代 1995

◎产 地 中国香港

◎类 别 喜剧 / 动作 / 犯罪

◎语 言 粤语 / 汉语普通话 / 英语

◎上映日期 1995-07-01(中国香港)

◎IMDb评分 6.1/10 from 4005 users

◎IMDb链接 https://www.imdb.com/title/tt0114437

◎豆瓣评分 7.3/10 from 37134 users

◎豆瓣链接 https://movie.douban.com/subject/1295106/

◎片 长 101分钟

◎导 演 王晶 Jing Wong

◎编 剧 王晶 Jing Wong

◎主 演 李连杰 Jet Li

张学友 Jacky Cheung

邱淑贞 Chingmy Yau

曹查理 Charlie Cho

周比利 Billy Chow

杨采妮 Charlie Yeung

周嘉玲 Valerie Chow

午马 Wu Ma

李力持 Lik-Chi Lee

王霄 Kelvin Wong

关秀媚 Suki Kwan

蔡业信 Raven Choi Yip-San

段伟伦 William Duan

卢雄 Paul Lo

魏伯勤 Boqin Wei

元德 Tak Yuen

林国斌 Ben Lam

罗伟佳 Wai-Kai Law

◎简 介

爆破专家李杰(李连杰 饰)一次因执行任务判断失误,亲眼目睹妻儿被活活炸死,伤心欲绝辞去公职,一面寻找杀死妻儿的凶手,一面化名大胆,为天皇巨星龙威(张学友 饰)出任保镖及替身,不时为他演出亡命的镜头。除了记得凶手的声音之外,并无其它线索。电视台主持人乐慧贞(邱淑贞 饰)对龙威的表演有所怀疑,因此不惜日夜跟从。龙威受邀参加一个大型珠宝展览会,自称医生(王霄 饰)的匪徒正策划盗取展览会钻饰,并派助手朱菲(周嘉玲 饰)混入酒店当公关作卧底。钻饰展览当日,李杰护送龙威到场后就离开,回家途中偶然在车上认出了医生的声音,于是拼命返回狂追匪徒,演绎了一场生死混战……

◎获奖情况

第32届台北金马影展(1995)

金马奖 最佳男配角(提名) 张学友

金马奖 最佳动作设计(提名) 元德 / 元奎


  1. Quote:


  2. General

  3. Unique ID : 303927337226321623373967942407813603309 (0xE4A646A5DA2F54E19A9E350971D81FED)

  4. Complete name : High Risk 1995 WEB-DL 4K H265 HFR DTS 5.1 & DD 2.0 2Audios-Dave.mkv

  5. Format : Matroska

  6. Format version : Version 4

  7. File size : 5.63 GiB

  8. Duration : 1 h 36 min

  9. Overall bit rate : 8 317 kb/s

  10. Encoded date : UTC 2021-06-08 13:15:50

  11. Writing application : mkvmerge v19.0.0 (‘Brave Captain‘) 64-bit

  12. Writing library : libebml v1.3.5 + libmatroska v1.4.8


  13. Video

  14. ID : 1

  15. Format : HEVC

  16. Format/Info : High Efficiency Video Coding

  17. Format profile : Main@L6@Main

  18. Codec ID : V_MPEGH/ISO/HEVC

  19. Duration : 1 h 36 min

  20. Bit rate : 7 161 kb/s

  21. Width : 3 840 pixels

  22. Height : 2 080 pixels

  23. Display aspect ratio : 1.85:1

  24. Frame rate mode : Constant

  25. Frame rate : 50.000 FPS

  26. Original frame rate : 1 000.000 FPS

  27. Color space : YUV

  28. Chroma subsampling : 4:2:0

  29. Bit depth : 8 bits

  30. Bits/(Pixel*Frame) : 0.018

  31. Stream size : 4.85 GiB (86%)

  32. Writing library : HW265_Code

  33. Default : Yes

  34. Forced : No


  35. Audio #1

  36. ID : 2

  37. Format : AC-3

  38. Format/Info : Audio Coding 3

  39. Commercial name : Dolby Digital

  40. Codec ID : A_AC3

  41. Duration : 1 h 36 min

  42. Bit rate mode : Constant

  43. Bit rate : 384 kb/s

  44. Channel(s) : 2 channels

  45. Channel layout : L R

  46. Sampling rate : 48.0 kHz

  47. Frame rate : 31.250 FPS (1536 SPF)

  48. Compression mode : Lossy

  49. Stream size : 266 MiB (5%)

  50. Title : DVD 国语

  51. Language : Chinese

  52. Service kind : Complete Main

  53. Default : Yes

  54. Forced : No


  55. Audio #2

  56. ID : 3

  57. Format : DTS

  58. Format/Info : Digital Theater Systems

  59. Codec ID : A_DTS

  60. Duration : 1 h 36 min

  61. Bit rate mode : Constant

  62. Bit rate : 768 kb/s

  63. Channel(s) : 6 channels

  64. Channel layout : C L R Ls Rs LFE

  65. Sampling rate : 48.0 kHz

  66. Frame rate : 93.750 FPS (512 SPF)

  67. Bit depth : 24 bits

  68. Compression mode : Lossy

  69. Stream size : 533 MiB (9%)

  70. Title : DVD 粤语

  71. Language : Chinese

  72. Default : No

  73. Forced : No

复制代码


文件下载


除非特别注明,本文『鼠胆龙威[国粤双语].迅雷下载.High Risk 1995 WEB-DL 4K』来源于互联网机器人自动抓取,非本站原创。 浮游电影网不对本文拥有版权,如有侵犯,请联系邮箱:fuyouu#yandex.com[#换成@]投诉。我们会在15个工作日内删除。 但烦请转载时请标明出处:“本文转载于『浮游电影网』,原文地址:https://www.fuyouu.com/12401.html

评论吧骚年!

发表你的见解   

昵称*

E-mail*(建议输入,以便收到博主回复的提示邮件)

验证码*

您可以使用eMule或eMule Mod(Windows)、aMule(Win、Linux、Mac)等软件下载eD2k链接。。
eMule收藏集(.emulecollection)文件是您选中的所有链接的列表文件。eMule可以直接下载它们。
按住SHIFT键选择可以选中多个选择框。
可用文件名和大小选择器来选择文件。
文件名选择器帮您根据文件名称或后缀来选择文件。不分大小写。
符号使用:
和:空格( )、+
不包含:-
或:|
转义:一对英文引号("");
匹配开头:^
匹配结尾:$
例如:
选中所有名称中包含有“eMule”或“0.49c”字眼,但不包含有“exe”字眼的:emule|0.49c -exe
选中所有名称的开头是“eMule”,结尾是“0.49c”的:^emule 0.49c$
选中所有名称中带有“eMule 0.49c”的(必须是“eMule 0.49c”,中间没有别的字符,不能是“eMule fake 0.49c”),需要转义:"emule 0.49c"
大小选择器帮您根据文件大小选择文件。