当前位置: 首页 >> 港台电影 >> 人肉玩具[国粤双语].迅雷下载.A Lamb in Despair 1999 WEB-DL 1080p >> 正文

人肉玩具[国粤双语].迅雷下载.A Lamb in Despair 1999 WEB-DL 1080p

2021年06月10日 10:35:41     电影发布:来源于网络     电影分类:港台电影     评论(0)    

人肉玩具[国粤双语].迅雷下载.A Lamb in Despair 1999 WEB DL 1080p 惊悚片 港台电影 第1张

◎译 名 A Lamb in Despair

◎片 名 人肉玩具

◎年 代 1999

◎产 地 中国香港

◎类 别 惊悚

◎语 言 粤语

◎上映日期 1999-08-12

◎IMDb评分 5.1/10 from 106 users

◎IMDb链接 https://www.imdb.com/title/tt0239549/

◎豆瓣评分 4.8/10 from 406 users

◎豆瓣链接 https://movie.douban.com/subject/19897609/

◎片 长 89分钟

◎导 演 蓝志伟 Francis Nam Chi-Wai

◎编 剧 梁鸿华 Tony Leung Hung-Wah / 蓝志伟 Francis Nam Chi-Wai

◎主 演 莫家尧 Ga Yiu Mok

黄秋生 Anthony Wong Chau-Sang

姚乐怡 Sherming Yiu

◎简 介

美藉华人胡子达涉嫌与友人同谋虐杀了25人,胡却把杀人罪名推到在狱中自杀了的同谋身上后被递解出境。他回香港找一位曾经帮助过他的朋友阿敏,同时,记者秋为达成自己的新闻利益用计谋令阿敏与胡碰面,更利用阿敏引诱胡兽性大发……

  1. Quote:


  2. General

  3. Unique ID : 130165552610864668452695922835458676043 (0x61ECF93A944663201A9917725CA8D54B)

  4. Complete name : A Lamb in Despair 1999 WEB-DL 1080p H265 AAC 2.0 & DD 2.0 3Audios-Dave.mkv

  5. Format : Matroska

  6. Format version : Version 4

  7. File size : 3.29 GiB

  8. Duration : 1 h 29 min

  9. Overall bit rate : 5 278 kb/s

  10. Encoded date : UTC 2021-06-09 16:35:58

  11. Writing application : mkvmerge v19.0.0 (‘Brave Captain‘) 64-bit

  12. Writing library : libebml v1.3.5 + libmatroska v1.4.8


  13. Video

  14. ID : 1

  15. Format : HEVC

  16. Format/Info : High Efficiency Video Coding

  17. Format profile : Main@L4@High

  18. Codec ID : V_MPEGH/ISO/HEVC

  19. Duration : 1 h 29 min

  20. Bit rate : 4 504 kb/s

  21. Width : 1 920 pixels

  22. Height : 1 080 pixels

  23. Display aspect ratio : 16:9

  24. Frame rate mode : Constant

  25. Frame rate : 24.000 FPS

  26. Color space : YUV

  27. Chroma subsampling : 4:2:0

  28. Bit depth : 8 bits

  29. Bits/(Pixel*Frame) : 0.091

  30. Stream size : 2.81 GiB (85%)

  31. Default : Yes

  32. Forced : No


  33. Audio #1

  34. ID : 2

  35. Format : AAC LC

  36. Format/Info : Advanced Audio Codec Low Complexity

  37. Codec ID : A_AAC-2

  38. Duration : 1 h 29 min

  39. Bit rate : 132 kb/s

  40. Channel(s) : 2 channels

  41. Channel layout : L R

  42. Sampling rate : 44.1 kHz

  43. Frame rate : 43.066 FPS (1024 SPF)

  44. Compression mode : Lossy

  45. Stream size : 83.8 MiB (2%)

  46. Title : 粤语

  47. Language : Chinese

  48. Default : Yes

  49. Forced : No


  50. Audio #2

  51. ID : 3

  52. Format : AC-3

  53. Format/Info : Audio Coding 3

  54. Commercial name : Dolby Digital

  55. Codec ID : A_AC3

  56. Duration : 1 h 29 min

  57. Bit rate mode : Constant

  58. Bit rate : 320 kb/s

  59. Channel(s) : 2 channels

  60. Channel layout : L R

  61. Sampling rate : 48.0 kHz

  62. Frame rate : 31.250 FPS (1536 SPF)

  63. Compression mode : Lossy

  64. Stream size : 204 MiB (6%)

  65. Title : DVD 粤语

  66. Language : Chinese

  67. Service kind : Complete Main

  68. Default : No

  69. Forced : No


  70. Audio #3

  71. ID : 4

  72. Format : AC-3

  73. Format/Info : Audio Coding 3

  74. Commercial name : Dolby Digital

  75. Codec ID : A_AC3

  76. Duration : 1 h 29 min

  77. Bit rate mode : Constant

  78. Bit rate : 320 kb/s

  79. Channel(s) : 2 channels

  80. Channel layout : L R

  81. Sampling rate : 48.0 kHz

  82. Frame rate : 31.250 FPS (1536 SPF)

  83. Compression mode : Lossy

  84. Stream size : 204 MiB (6%)

  85. Title : DVD 国语

  86. Language : Chinese

  87. Service kind : Complete Main

  88. Default : No

  89. Forced : No

复制代码


文件下载


除非特别注明,本文『人肉玩具[国粤双语].迅雷下载.A Lamb in Despair 1999 WEB-DL 1080p』来源于互联网机器人自动抓取,非本站原创。 浮游电影网不对本文拥有版权,如有侵犯,请联系邮箱:fuyouu#yandex.com[#换成@]投诉。我们会在15个工作日内删除。 但烦请转载时请标明出处:“本文转载于『浮游电影网』,原文地址:https://www.fuyouu.com/12400.html

评论吧骚年!

发表你的见解   

昵称*

E-mail*(建议输入,以便收到博主回复的提示邮件)

验证码*

您可以使用eMule或eMule Mod(Windows)、aMule(Win、Linux、Mac)等软件下载eD2k链接。。
eMule收藏集(.emulecollection)文件是您选中的所有链接的列表文件。eMule可以直接下载它们。
按住SHIFT键选择可以选中多个选择框。
可用文件名和大小选择器来选择文件。
文件名选择器帮您根据文件名称或后缀来选择文件。不分大小写。
符号使用:
和:空格( )、+
不包含:-
或:|
转义:一对英文引号("");
匹配开头:^
匹配结尾:$
例如:
选中所有名称中包含有“eMule”或“0.49c”字眼,但不包含有“exe”字眼的:emule|0.49c -exe
选中所有名称的开头是“eMule”,结尾是“0.49c”的:^emule 0.49c$
选中所有名称中带有“eMule 0.49c”的(必须是“eMule 0.49c”,中间没有别的字符,不能是“eMule fake 0.49c”),需要转义:"emule 0.49c"
大小选择器帮您根据文件大小选择文件。