当前位置: 首页 >> 港台电影 >> 鬼打鬼之灵幻天师[国粤双语].迅雷下载.Mad Mad Ghost.1992.1080p >> 正文

鬼打鬼之灵幻天师[国粤双语].迅雷下载.Mad Mad Ghost.1992.1080p

2021年06月10日 10:34:05     电影发布:来源于网络     电影分类:港台电影     评论(0)    

鬼打鬼之灵幻天师[国粤双语].迅雷下载.Mad Mad Ghost.1992.1080p 恐怖片 动作片 喜剧片 港台电影 第1张

◎译 名 Mad Mad Ghost / 捉鬼罗汉 / 鬼打鬼之灵幻天师

◎片 名 鬼打鬼之黄金道士

◎年 代 1992

◎产 地 中国香港

◎类 别 喜剧 / 动作 / 恐怖

◎语 言 粤语

◎上映日期 1992-11-13

◎IMDb评分 5.8/10 from 67 users

◎IMDb链接 https://www.imdb.com/title/tt0104460

◎豆瓣评分 6.9/10 from 8298 users

◎豆瓣链接 https://movie.douban.com/subject/1794401/

◎片 长 91 分钟

◎导 演 陈会毅 Billy Chan

◎主 演 林正英 Ching-Ying Lam

沈威 Wai Shum

罗慧娟 Jacqueline Law

金十二 Sap-Yee Gam

陈龙 Peter Chan Lung

楼南光 Billy Lau

Mandy Chan

余绮霞 Dorothy Yu

何沛东 Ricky Ho

谢伟杰 Wai-Kit Tse

胡越山 Wing-Keung Wu

梁思浩 See-ho Leung

吴启明 Kai-Ming Ng

陈志文 Zhiwen Chen

◎简 介

道士英叔(林正英 饰)胸怀开宗立派之志,每日带领五名徒弟勤加修炼,他为人坦荡,清贫无一长物,不得不做看更来补贴日用。英叔受人委托,看守一座无人大宅,无处容身的师徒六人暂住大宅之中。这座宅第中有一对儿清朝鬼夫妻留驻,女鬼阿娟(罗慧娟 饰)饱受丈夫虐待殴打,英叔仗义出手,将男鬼驱逐,阿娟自此留在其身边,与五个徒弟相处融洽。不久男鬼带同伴寻仇,英叔师徒大展威力再次驱鬼,阿娟亦一改受气形象,在丈夫面前扬眉吐气,此后她日日配合众徒弟练习捉鬼之术。一伙外国黑社会分子得到情报,获悉在这座大宅内藏有大量黄金,他们乔装教堂人员入住,试图谋害英叔等人,夺取黄金……

Quote:

General

Unique ID : 53304898323067323787616540452266680035 (0x281A26658067AFC4257658282E4F9EE3)

Complete name : Mad Mad Ghost 1992 WEB-DL 1080p H264 AAC 2Audios-Dave.mkv

Format : Matroska

Format version : Version 4

File size : 3.23 GiB

Duration : 1 h 27 min

Overall bit rate : 5 295 kb/s

Encoded date : UTC 2021-06-09 09:30:26

Writing application : mkvmerge v19.0.0 (‘Brave Captain‘) 64-bit

Writing library : libebml v1.3.5 + libmatroska v1.4.8

Video

ID : 1

Format : AVC

Format/Info : Advanced Video Codec

Format profile : High@L4

Format settings : CABAC / 4 Ref Frames

Format settings, CABAC : Yes

Format settings, Reference fra : 4 frames

Codec ID : V_MPEG4/ISO/AVC

Duration : 1 h 27 min

Bit rate : 5 037 kb/s

Width : 1 920 pixels

Height : 1 080 pixels

Display aspect ratio : 16:9

Frame rate mode : Variable

Frame rate : 25.000 FPS

Color space : YUV

Chroma subsampling : 4:2:0

Bit depth : 8 bits

Scan type : Progressive

Bits/(Pixel*Frame) : 0.097

Stream size : 3.08 GiB (95%)

Default : Yes

Forced : No

Audio #1

ID : 2

Format : AAC LC SBR

Format/Info : Advanced Audio Codec Low Complexity with Spectral Band Replication

Commercial name : HE-AAC

Format settings : Explicit

Codec ID : A_AAC-2

Duration : 1 h 27 min

Bit rate : 128 kb/s

Channel(s) : 2 channels

Channel layout : L R

Sampling rate : 48.0 kHz

Frame rate : 23.438 FPS (2048 SPF)

Compression mode : Lossy

Stream size : 80.0 MiB (2%)

Title : 国语

Language : Chinese

Default : Yes

Forced : No

Audio #2

ID : 3

Format : AAC LC SBR

Format/Info : Advanced Audio Codec Low Complexity with Spectral Band Replication

Commercial name : HE-AAC

Format settings : Explicit

Codec ID : A_AAC-2

Duration : 1 h 27 min

Bit rate : 128 kb/s

Channel(s) : 2 channels

Channel layout : L R

Sampling rate : 48.0 kHz

Frame rate : 23.438 FPS (2048 SPF)

Compression mode : Lossy

Delay relative to video : 31 ms

Stream size : 80.0 MiB (2%)

Title : 粤语

Language : Chinese

Default : No

Forced : No


文件下载


除非特别注明,本文『鬼打鬼之灵幻天师[国粤双语].迅雷下载.Mad Mad Ghost.1992.1080p』来源于互联网机器人自动抓取,非本站原创。 浮游电影网不对本文拥有版权,如有侵犯,请联系邮箱:fuyouu#yandex.com[#换成@]投诉。我们会在15个工作日内删除。 但烦请转载时请标明出处:“本文转载于『浮游电影网』,原文地址:https://www.fuyouu.com/12399.html

评论吧骚年!

发表你的见解   

昵称*

E-mail*(建议输入,以便收到博主回复的提示邮件)

验证码*

您可以使用eMule或eMule Mod(Windows)、aMule(Win、Linux、Mac)等软件下载eD2k链接。。
eMule收藏集(.emulecollection)文件是您选中的所有链接的列表文件。eMule可以直接下载它们。
按住SHIFT键选择可以选中多个选择框。
可用文件名和大小选择器来选择文件。
文件名选择器帮您根据文件名称或后缀来选择文件。不分大小写。
符号使用:
和:空格( )、+
不包含:-
或:|
转义:一对英文引号("");
匹配开头:^
匹配结尾:$
例如:
选中所有名称中包含有“eMule”或“0.49c”字眼,但不包含有“exe”字眼的:emule|0.49c -exe
选中所有名称的开头是“eMule”,结尾是“0.49c”的:^emule 0.49c$
选中所有名称中带有“eMule 0.49c”的(必须是“eMule 0.49c”,中间没有别的字符,不能是“eMule fake 0.49c”),需要转义:"emule 0.49c"
大小选择器帮您根据文件大小选择文件。