当前位置: 首页 >> 国产电影 >> 紫蝴蝶[国语.中文字幕].迅雷下载.Purple.Butterfly.2003.HD.1080P >> 正文

紫蝴蝶[国语.中文字幕].迅雷下载.Purple.Butterfly.2003.HD.1080P

2021年06月09日 10:49:58     电影发布:来源于网络     电影分类:国产电影     评论(0)    

紫蝴蝶[国语.中文字幕].迅雷下载.Purple.Butterfly.2003.HD.1080P 战争片 历史 爱情片 剧情片 国产电影 第1张

◎译 名 Purple Butterfly

◎片 名 紫蝴蝶

◎年 代 2003

◎产 地 中国大陆/法国

◎类 别 剧情/爱情/历史/战争

◎语 言 汉语普通话/日语/越南语

◎上映日期 2003-05-22(戛纳电影节)

◎IMDb评分 6.1/10 from 1201 users

◎IMDb链接 https://www.imdb.com/title/tt0363290/

◎豆瓣评分 6.8/10 from 10735 users

◎豆瓣链接 https://douban.com/subject/1303217/

◎片 长 128分钟

◎导 演 娄烨 Ye Lou

◎编 剧 娄烨 Ye Lou / 梅峰 Feng Mei

◎主 演 章子怡 Ziyi Zhang

刘烨 Ye Liu

仲村亨 Tôru Nakamura

冯远征 Yuanzheng Feng

李冰冰 Bingbing Li

王凯 Kai Wang

蓝心妍 Leni Lan

谢承颖 Chengying Xie

姚安濂 Anlian Yao

Felicia Pullam

Seiichiro Hashimoto

高昊 Hao Gao

◎标 签 娄烨 | 章子怡 | 刘烨 | 文艺 | 中国电影 | 中国 | 大陆 | 爱情

◎简 介

1928年,伪满洲国的日本翻译伊丹英彦(仲村亨)离开中国情人丁慧(章子怡)返回日本,数年后他再回中国来到上海时,变身高级特务。而此时丁慧已成为地下抗日组织的成员,并与该组织首领谢明(冯远征)相爱。抗日组织去火车站接从外地聘请的暗杀日本情报人员山本的杀手时,误认其为小职员司徒(刘烨),混乱中,丁慧杀死司徒女友依玲(李冰冰),司徒则被伊丹英彦抓获。

对一系列遭遇无比迷惑的司徒被释放后,发誓要为依玲报仇。丁慧与伊丹英彦重逢,成为两股势力互相设局要利用的重要棋子,她本人正为误杀无辜饱受内心折磨。某个日本会所举办的舞会上,伊丹英彦告诉丁慧山本与谢明均已死,丁慧震惊想刺杀伊丹英彦之际,司徒持枪闯进舞会。

◎获奖情况

第56届戛纳电影节 (2003)

主竞赛单元金棕榈奖(提名) 娄烨

第4届华语电影传媒大奖 (2004)

最佳电影(提名)

最佳导演(提名) 娄烨

最佳男主角(提名) 刘烨

最佳女主角 章子怡

最佳男配角(提名) 冯远征

  1. 引用

  2. General

  3. Unique ID : 201275494468916149771872214894477468310 (0x976C400C3FB7982E831A9900B26E6296)

  4. Complete name : 紫蝴蝶.Purple.Butterfly.2003.HD.1080P.x264.mkv

  5. Format : Matroska

  6. Format version : Version 4

  7. File size : 9.98 GiB

  8. Duration : 2 h 2 min

  9. Overall bit rate mode : Variable

  10. Overall bit rate : 11.6 Mb/s

  11. Encoded date : UTC 2019-02-09 14:30:52

  12. Writing application : mkvmerge v6.8.0 ('Theme for Great Cities') 64bit built on Mar 2 2014 21:34:26

  13. Writing library : libebml v1.3.0 + libmatroska v1.4.1


  14. Video

  15. ID : 1

  16. Format : MPEG Video

  17. Format version : Version 2

  18. Format profile : Main@High

  19. Format settings, BVOP : No

  20. Format settings, Matrix : Default

  21. Format settings, GOP : N=12

  22. Codec ID : V_MPEG2

  23. Codec ID/Info : MPEG 1 or 2 Video

  24. Duration : 2 h 2 min

  25. Bit rate mode : Variable

  26. Bit rate : 11.2 Mb/s

  27. Width : 1 920 pixels

  28. Height : 1 078 pixels

  29. Display aspect ratio : 16:9

  30. frame rate mode : Constant

  31. frame rate : 25.000 FPS

  32. Color space : YUV

  33. Chroma subsampling : 4:2:0

  34. Bit depth : 8 bits

  35. Scan type : Progressive

  36. Compression mode : Lossy

  37. Bits/(Pixel*frame) : 0.217

  38. Time code of first frame : 00:00:00:00

  39. Time code source : Group of pictures header

  40. GOP, Open/Closed : Open

  41. GOP, Open/Closed of first fram : Closed

  42. Stream size : 9.62 GiB (96%)

  43. Default : Yes

  44. Forced : No


  45. Audio

  46. ID : 2

  47. Format : AC-3

  48. Format/Info : Audio Coding 3

  49. Commercial name : Dolby Digital

  50. Codec ID : A_AC3

  51. Duration : 2 h 2 min

  52. Bit rate mode : Constant

  53. Bit rate : 192 kb/s

  54. Channel(s) : 2 channels

  55. Channel layout : L R

  56. Sampling rate : 48.0 kHz

  57. frame rate : 31.250 FPS (1536 SPF)

  58. Compression mode : Lossy

  59. Delay relative to video : 4 ms

  60. Stream size : 169 MiB (2%)

  61. Language : Chinese

  62. Service kind : Complete Main

  63. Default : Yes

  64. Forced : No


  65. Text #1

  66. ID : 3

  67. Format : SSA

  68. Codec ID : S_TEXT/SSA

  69. Codec ID/Info : Sub Station Alpha

  70. Compression mode : Lossless

  71. title : 简体中文

  72. Language : Chinese

  73. Default : Yes

  74. Forced : No


  75. Text #2

  76. ID : 4

  77. Format : SSA

  78. Codec ID : S_TEXT/SSA

  79. Codec ID/Info : Sub Station Alpha

  80. Compression mode : Lossless

  81. title : 繁体中文

  82. Language : Chinese

  83. Default : No

  84. Forced : No


  85. Text #3

  86. ID : 5

  87. Format : SSA

  88. Codec ID : S_TEXT/SSA

  89. Codec ID/Info : Sub Station Alpha

  90. Compression mode : Lossless

  91. title : 英文

  92. Language : English

  93. Default : No

  94. Forced : No


复制代码


文件下载


除非特别注明,本文『紫蝴蝶[国语.中文字幕].迅雷下载.Purple.Butterfly.2003.HD.1080P』来源于互联网机器人自动抓取,非本站原创。 浮游电影网不对本文拥有版权,如有侵犯,请联系邮箱:fuyouu#yandex.com[#换成@]投诉。我们会在15个工作日内删除。 但烦请转载时请标明出处:“本文转载于『浮游电影网』,原文地址:https://www.fuyouu.com/12374.html

评论吧骚年!

发表你的见解   

昵称*

E-mail*(建议输入,以便收到博主回复的提示邮件)

验证码*

您可以使用eMule或eMule Mod(Windows)、aMule(Win、Linux、Mac)等软件下载eD2k链接。。
eMule收藏集(.emulecollection)文件是您选中的所有链接的列表文件。eMule可以直接下载它们。
按住SHIFT键选择可以选中多个选择框。
可用文件名和大小选择器来选择文件。
文件名选择器帮您根据文件名称或后缀来选择文件。不分大小写。
符号使用:
和:空格( )、+
不包含:-
或:|
转义:一对英文引号("");
匹配开头:^
匹配结尾:$
例如:
选中所有名称中包含有“eMule”或“0.49c”字眼,但不包含有“exe”字眼的:emule|0.49c -exe
选中所有名称的开头是“eMule”,结尾是“0.49c”的:^emule 0.49c$
选中所有名称中带有“eMule 0.49c”的(必须是“eMule 0.49c”,中间没有别的字符,不能是“eMule fake 0.49c”),需要转义:"emule 0.49c"
大小选择器帮您根据文件大小选择文件。