当前位置: 首页 >> 国产电影 >> 秘密访客.迅雷下载[国语中字].Home Sweet Home.2021.4K >> 正文

秘密访客.迅雷下载[国语中字].Home Sweet Home.2021.4K

2021年06月09日 10:48:30     电影发布:来源于网络     电影分类:国产电影     评论(0)    

秘密访客.迅雷下载[国语中字].Home Sweet Home.2021.4K 悬疑片 惊悚片 国产电影 第1张

◎译 名 Home Sweet Home

◎片 名 秘密访客

◎年 代 2021

◎产 地 中国大陆

◎类 别 悬疑 / 惊悚

◎语 言 汉语普通话

◎上映日期 2021-05-01(中国大陆)

◎IMDb评分 5.9/10 from 79 users

◎IMDb链接 https://www.imdb.com/title/tt10097384

◎豆瓣评分 5.6/10 from 91211 users

◎豆瓣链接 https://movie.douban.com/subject/30378158/

◎片 长 111分钟

◎导 演 陈正道 Leste Chen

◎编 剧 殳俏 Qiao Shu / 易帅婕 Shuaijie Yi

◎主 演 郭富城 Aaron Kwok

段奕宏 Yihong Duan

张子枫 Zifeng Zhang

许玮甯 Hsu Wei-Ning

荣梓杉 Zishan Rong

王圣迪 Shengdi Wang

吕聿来 Yulai Lü

张柏嘉 Baijia Zhang

孔雁 Yan Kong

◎简 介

◎简 介

校车司机于困樵(段奕宏 饰)因失职酿成了一起重大的校车车祸,困樵拼死救出了似与车祸背后真相息息相关的汪楚祺(荣梓杉 饰),校车上的其他学生无人生还。

得知此事家境显赫的汪父(郭富城 饰)为了隐藏这个秘密,不得不把困樵藏在自己家的地下室里长达三年,却处处暗示困樵何时自首。随着访客的到来,这个原本温馨和睦的四口之家变得越来越诡异,母亲(许玮甯 饰)整日惴惴不安,姐姐(张子枫 饰)举止一反常态,家人个个心怀鬼胎,怪事频出,这个家背后不可告人的秘密似乎即将浮出水面……

◎获奖情况

第7届豆瓣电影年度榜单 (2020)

最值得期待的华语电影(提名)


  1. Quote:


  2. General

  3. Unique ID : 249152646405439611293027992694795759924 (0xBB710DE2E7DB724FA9D6BB8DB1EF7134)

  4. Complete name : Home Sweet Home 2021 WEB-DL 4K H265 Dolby Digital Plus with Dolby Atmos-Dave.mkv

  5. Format : Matroska

  6. Format version : Version 4

  7. File size : 5.55 GiB

  8. Duration : 1 h 49 min

  9. Overall bit rate : 7 232 kb/s

  10. Encoded date : UTC 2021-06-08 08:20:27

  11. Writing application : mkvmerge v19.0.0 (‘Brave Captain‘) 64-bit

  12. Writing library : libebml v1.3.5 + libmatroska v1.4.8


  13. Video

  14. ID : 1

  15. Format : HEVC

  16. Format/Info : High Efficiency Video Coding

  17. Format profile : Main@L5@Main

  18. Codec ID : V_MPEGH/ISO/HEVC

  19. Duration : 1 h 49 min

  20. Bit rate : 6 651 kb/s

  21. Width : 3 840 pixels

  22. Height : 1 626 pixels

  23. Display aspect ratio : 2.35:1

  24. Frame rate mode : Constant

  25. Frame rate : 24.000 FPS

  26. Color space : YUV

  27. Chroma subsampling : 4:2:0

  28. Bit depth : 8 bits

  29. Bits/(Pixel*Frame) : 0.044

  30. Stream size : 5.10 GiB (92%)

  31. Writing library : HW265_Code

  32. Default : Yes

  33. Forced : No

  34. Color range : Limited

  35. Color primaries : BT.709

  36. Transfer characteristics : BT.709

  37. Matrix coefficients : BT.709


  38. Audio #1

  39. ID : 2

  40. Format : E-AC-3 JOC

  41. Format/Info : Enhanced AC-3 with Joint Object Coding

  42. Commercial name : Dolby Digital Plus with Dolby Atmos

  43. Codec ID : A_EAC3

  44. Duration : 1 h 49 min

  45. Bit rate mode : Constant

  46. Bit rate : 448 kb/s

  47. Channel(s) : 6 channels

  48. Channel layout : L R C LFE Ls Rs

  49. Sampling rate : 48.0 kHz

  50. Frame rate : 31.250 FPS (1536 SPF)

  51. Compression mode : Lossy

  52. Stream size : 352 MiB (6%)

  53. Language : Chinese

  54. Service kind : Complete Main

  55. Default : Yes

  56. Forced : No

  57. Complexity index : 16

  58. Number of dynamic objects : 15

  59. Bed channel count : 1 channel

  60. Bed channel configuration : LFE


  61. Audio #2

  62. ID : 3

  63. Format : AAC LC SBR

  64. Format/Info : Advanced Audio Codec Low Complexity with Spectral Band Replication

  65. Commercial name : HE-AAC

  66. Format settings : NBC

  67. Codec ID : A_AAC-5

  68. Duration : 1 h 49 min

  69. Bit rate : 132 kb/s

  70. Channel(s) : 6 channels

  71. Channel layout : C L R Ls Rs LFE

  72. Sampling rate : 48.0 kHz

  73. Frame rate : 23.438 FPS (2048 SPF)

  74. Compression mode : Lossy

  75. Stream size : 103 MiB (2%)

  76. Language : Chinese

  77. Default : No

  78. Forced : No

复制代码


文件下载


除非特别注明,本文『秘密访客.迅雷下载[国语中字].Home Sweet Home.2021.4K』来源于互联网机器人自动抓取,非本站原创。 浮游电影网不对本文拥有版权,如有侵犯,请联系邮箱:fuyouu#yandex.com[#换成@]投诉。我们会在15个工作日内删除。 但烦请转载时请标明出处:“本文转载于『浮游电影网』,原文地址:https://www.fuyouu.com/12373.html

评论吧骚年!

发表你的见解   

昵称*

E-mail*(建议输入,以便收到博主回复的提示邮件)

验证码*

您可以使用eMule或eMule Mod(Windows)、aMule(Win、Linux、Mac)等软件下载eD2k链接。。
eMule收藏集(.emulecollection)文件是您选中的所有链接的列表文件。eMule可以直接下载它们。
按住SHIFT键选择可以选中多个选择框。
可用文件名和大小选择器来选择文件。
文件名选择器帮您根据文件名称或后缀来选择文件。不分大小写。
符号使用:
和:空格( )、+
不包含:-
或:|
转义:一对英文引号("");
匹配开头:^
匹配结尾:$
例如:
选中所有名称中包含有“eMule”或“0.49c”字眼,但不包含有“exe”字眼的:emule|0.49c -exe
选中所有名称的开头是“eMule”,结尾是“0.49c”的:^emule 0.49c$
选中所有名称中带有“eMule 0.49c”的(必须是“eMule 0.49c”,中间没有别的字符,不能是“eMule fake 0.49c”),需要转义:"emule 0.49c"
大小选择器帮您根据文件大小选择文件。