当前位置: 首页 >> 港台电影 >> 金瓶风月.迅雷下载[国粤双语.中文字幕].The Golden Lotus “Love and Desire”.1991.1080p >> 正文

金瓶风月.迅雷下载[国粤双语.中文字幕].The Golden Lotus “Love and Desire”.1991.1080p

2021年06月08日 00:24:46     电影发布:来源于网络     电影分类:港台电影     评论(0)    

金瓶风月.迅雷下载[国粤双语.中文字幕].The Golden Lotus “Love and Desire”.1991.1080p 古装片 情色 剧情片 港台电影 第1张

◎译 名 金瓶风月 / The Golden Lotus: Love and Desire / The World‘s Foremost Banned Novel / The Golden Lotus “Love and Desire” / Golden Lotus

◎片 名 金瓶風月

◎年 代 1991

◎产 地 中国香港

◎类 别 剧情 / 情色 / 古装

◎语 言 粤语

◎上映日期 1991-05-09(中国香港)

◎IMDb评分 4.9/10 from 62 users

◎IMDb链接 https://www.imdb.com/title/tt0101963/

◎豆瓣评分 6.4/10 from 1878 users

◎豆瓣链接 https://movie.douban.com/subject/4227486/

◎片 长 91分钟

◎导 演 李翰祥 Han Hsiang Li

◎编 剧 李翰祥 Han Hsiang Li

◎主 演 单立文 Pal Sinn

方玉婷 Yuk Ting Fong

曹查理 Charlie Cho

纪倩儿 Sin Yi Gei

李婉淑 Yuen Suk Lee

甘静 Jing Kan

◎简 介

潘金莲(方玉婷 饰)联手西门庆(单立文 饰)害死了自己的丈夫,之后,她终于如愿以偿地嫁入了西门庆家成为了第五位夫人。一对有情人好不容易走到了一起,朝夕相处的日子充满了放荡不羁的幸福和快乐,可是,随着时间的推移,风流成性的西门庆逐渐厌倦了潘金莲,他将新的目标放在了名叫李瓶儿(纪倩儿 饰)的女子身上。

西门庆的移情别恋令潘金莲醋性大发,更让她无法接受的是,李瓶儿很快就怀上了西门庆的子嗣,因此更为受宠。之后,潘金莲的丫鬟春梅(李婉淑 饰)亦同西门庆展开了一段活色生香的不伦之恋,一时间,西门府上洋溢着连绵不绝的春色。

  1. Quote:


  2. General

  3. Unique ID : 270016419297805096444838811582533033378 (0xCB23454F3A95951D1A6A2045A4CD5DA2)

  4. Complete name : The Golden Lotus “Love and Desire” 1991 WEB-DL 1080p H265 AAC 2.0 & DD 2.0 3Audios-Dave.mkv

  5. Format : Matroska

  6. Format version : Version 4

  7. File size : 3.12 GiB

  8. Duration : 1 h 31 min

  9. Overall bit rate : 4 898 kb/s

  10. Encoded date : UTC 2021-06-06 14:20:05

  11. Writing application : mkvmerge v19.0.0 (‘Brave Captain‘) 64-bit

  12. Writing library : libebml v1.3.5 + libmatroska v1.4.8


  13. Video

  14. ID : 1

  15. Format : HEVC

  16. Format/Info : High Efficiency Video Coding

  17. Format profile : Main@L4@High

  18. Codec ID : V_MPEGH/ISO/HEVC

  19. Duration : 1 h 31 min

  20. Bit rate : 4 515 kb/s

  21. Width : 1 920 pixels

  22. Height : 1 080 pixels

  23. Display aspect ratio : 16:9

  24. Frame rate mode : Constant

  25. Frame rate : 24.000 FPS

  26. Color space : YUV

  27. Chroma subsampling : 4:2:0

  28. Bit depth : 8 bits

  29. Bits/(Pixel*Frame) : 0.091

  30. Stream size : 2.88 GiB (92%)

  31. Default : Yes

  32. Forced : No


  33. Audio #1

  34. ID : 2

  35. Format : AAC LC

  36. Format/Info : Advanced Audio Codec Low Complexity

  37. Codec ID : A_AAC-2

  38. Duration : 1 h 31 min

  39. Bit rate : 124 kb/s

  40. Channel(s) : 2 channels

  41. Channel layout : L R

  42. Sampling rate : 44.1 kHz

  43. Frame rate : 43.066 FPS (1024 SPF)

  44. Compression mode : Lossy

  45. Stream size : 81.2 MiB (3%)

  46. Title : 粤语

  47. Language : Chinese

  48. Default : Yes

  49. Forced : No


  50. Audio #2

  51. ID : 3

  52. Format : AC-3

  53. Format/Info : Audio Coding 3

  54. Commercial name : Dolby Digital

  55. Codec ID : A_AC3

  56. Duration : 1 h 31 min

  57. Bit rate mode : Constant

  58. Bit rate : 128 kb/s

  59. Channel(s) : 2 channels

  60. Channel layout : L R

  61. Sampling rate : 48.0 kHz

  62. Frame rate : 31.250 FPS (1536 SPF)

  63. Compression mode : Lossy

  64. Stream size : 83.6 MiB (3%)

  65. Title : DVD 粤语

  66. Language : Chinese

  67. Service kind : Complete Main

  68. Default : No

  69. Forced : No


  70. Audio #3

  71. ID : 4

  72. Format : AC-3

  73. Format/Info : Audio Coding 3

  74. Commercial name : Dolby Digital

  75. Codec ID : A_AC3

  76. Duration : 1 h 31 min

  77. Bit rate mode : Constant

  78. Bit rate : 128 kb/s

  79. Channel(s) : 2 channels

  80. Channel layout : L R

  81. Sampling rate : 48.0 kHz

  82. Frame rate : 31.250 FPS (1536 SPF)

  83. Compression mode : Lossy

  84. Stream size : 83.6 MiB (3%)

  85. Title : DVD 国语

  86. Language : Chinese

  87. Service kind : Complete Main

  88. Default : No

  89. Forced : No


  90. Text #1

  91. ID : 5

  92. Format : UTF-8

  93. Codec ID : S_TEXT/UTF8

  94. Codec ID/Info : UTF-8 Plain Text

  95. Duration : 1 h 30 min

  96. Bit rate : 24 b/s

  97. Count of elements : 618

  98. Stream size : 16.1 KiB (0%)

  99. Title : 简体中文

  100. Language : Chinese

  101. Default : Yes

  102. Forced : No


  103. Text #2

  104. ID : 6

  105. Format : UTF-8

  106. Codec ID : S_TEXT/UTF8

  107. Codec ID/Info : UTF-8 Plain Text

  108. Duration : 1 h 30 min

  109. Bit rate : 24 b/s

  110. Count of elements : 618

  111. Stream size : 16.1 KiB (0%)

  112. Title : 繁体中文

  113. Language : Chinese

  114. Default : No

  115. Forced : No


  116. Text #3

  117. ID : 7

  118. Format : UTF-8

  119. Codec ID : S_TEXT/UTF8

  120. Codec ID/Info : UTF-8 Plain Text

  121. Duration : 1 h 30 min

  122. Bit rate : 29 b/s

  123. Count of elements : 618

  124. Stream size : 19.2 KiB (0%)

  125. Title : 英语

  126. Language : English

  127. Default : No

  128. Forced : No


  129. Text #4

  130. ID : 8

  131. Format : UTF-8

  132. Codec ID : S_TEXT/UTF8

  133. Codec ID/Info : UTF-8 Plain Text

  134. Duration : 1 h 30 min

  135. Bit rate : 67 b/s

  136. Count of elements : 618

  137. Stream size : 44.7 KiB (0%)

  138. Title : 泰语

  139. Language : Thai

  140. Default : No

  141. Forced : No


  142. Text #5

  143. ID : 9

  144. Format : UTF-8

  145. Codec ID : S_TEXT/UTF8

  146. Codec ID/Info : UTF-8 Plain Text

  147. Duration : 1 h 30 min

  148. Bit rate : 28 b/s

  149. Count of elements : 618

  150. Stream size : 19.1 KiB (0%)

  151. Title : 马来语

  152. Language : Malay

  153. Default : No

  154. Forced : No


  155. Text #6

  156. ID : 10

  157. Format : UTF-8

  158. Codec ID : S_TEXT/UTF8

  159. Codec ID/Info : UTF-8 Plain Text

  160. Duration : 1 h 30 min

  161. Bit rate : 37 b/s

  162. Count of elements : 618

  163. Stream size : 24.7 KiB (0%)

  164. Title : 越南语

  165. Language : Vietnamese

  166. Default : No

  167. Forced : No


  168. Text #7

  169. ID : 11

  170. Format : UTF-8

  171. Codec ID : S_TEXT/UTF8

  172. Codec ID/Info : UTF-8 Plain Text

  173. Duration : 1 h 30 min

  174. Bit rate : 29 b/s

  175. Count of elements : 618

  176. Stream size : 19.4 KiB (0%)

  177. Title : 印尼语

  178. Language : Indonesian

  179. Default : No

  180. Forced : No


  181. Text #8

  182. ID : 12

  183. Format : UTF-8

  184. Codec ID : S_TEXT/UTF8

  185. Codec ID/Info : UTF-8 Plain Text

  186. Duration : 1 h 30 min

  187. Bit rate : 30 b/s

  188. Count of elements : 618

  189. Stream size : 20.2 KiB (0%)

  190. Title : 西班牙语

  191. Language : Spanish

  192. Default : No

  193. Forced : No


  194. Text #9

  195. ID : 13

  196. Format : UTF-8

  197. Codec ID : S_TEXT/UTF8

  198. Codec ID/Info : UTF-8 Plain Text

  199. Duration : 1 h 30 min

  200. Bit rate : 30 b/s

  201. Count of elements : 618

  202. Stream size : 20.4 KiB (0%)

  203. Title : 葡萄牙语

  204. Language : Portuguese

  205. Default : No

  206. Forced : No


  207. Text #10

  208. ID : 14

  209. Format : UTF-8

  210. Codec ID : S_TEXT/UTF8

  211. Codec ID/Info : UTF-8 Plain Text

  212. Duration : 1 h 30 min

  213. Bit rate : 36 b/s

  214. Count of elements : 618

  215. Stream size : 24.1 KiB (0%)

  216. Title : 阿拉伯语

  217. Language : Arabic

  218. Default : No

  219. Forced : No

复制代码


文件下载


除非特别注明,本文『金瓶风月.迅雷下载[国粤双语.中文字幕].The Golden Lotus “Love and Desire”.1991.1080p』来源于互联网机器人自动抓取,非本站原创。 浮游电影网不对本文拥有版权,如有侵犯,请联系邮箱:fuyouu#yandex.com[#换成@]投诉。我们会在15个工作日内删除。 但烦请转载时请标明出处:“本文转载于『浮游电影网』,原文地址:https://www.fuyouu.com/12362.html

评论吧骚年!

发表你的见解   

昵称*

E-mail*(建议输入,以便收到博主回复的提示邮件)

验证码*

您可以使用eMule或eMule Mod(Windows)、aMule(Win、Linux、Mac)等软件下载eD2k链接。。
eMule收藏集(.emulecollection)文件是您选中的所有链接的列表文件。eMule可以直接下载它们。
按住SHIFT键选择可以选中多个选择框。
可用文件名和大小选择器来选择文件。
文件名选择器帮您根据文件名称或后缀来选择文件。不分大小写。
符号使用:
和:空格( )、+
不包含:-
或:|
转义:一对英文引号("");
匹配开头:^
匹配结尾:$
例如:
选中所有名称中包含有“eMule”或“0.49c”字眼,但不包含有“exe”字眼的:emule|0.49c -exe
选中所有名称的开头是“eMule”,结尾是“0.49c”的:^emule 0.49c$
选中所有名称中带有“eMule 0.49c”的(必须是“eMule 0.49c”,中间没有别的字符,不能是“eMule fake 0.49c”),需要转义:"emule 0.49c"
大小选择器帮您根据文件大小选择文件。