当前位置: 首页 >> 港台电影 >> 新家法[国粤双语.中文字幕].迅雷下载.The Rules of the Game.1999.1080p >> 正文

新家法[国粤双语.中文字幕].迅雷下载.The Rules of the Game.1999.1080p

2021年06月08日 00:23:26     电影发布:来源于网络     电影分类:港台电影     评论(0)    

新家法[国粤双语.中文字幕].迅雷下载.The Rules of the Game.1999.1080p 犯罪片 港台电影 第1张

◎译 名 The Rules of the Game / 古惑仔之新家法

◎片 名 新家法

◎年 代 1999

◎产 地 中国香港

◎类 别 犯罪

◎语 言 粤语

◎上映日期 1999-09-10(中国香港)

◎IMDb评分 6.3/10 from 83 users

◎IMDb链接 https://www.imdb.com/title/tt0885523

◎豆瓣评分 6.5/10 from 7497 users

◎豆瓣链接 https://movie.douban.com/subject/2084048/

◎片 长 120分钟

◎导 演 郑伟文 Wai-Man Cheng

◎编 剧 南燕 Yin Nam

◎主 演 古天乐 Louis Koo

方中信 Alex Fong

杨恭如 Kristy Yang

陈宝骏 Po-Chun Chan

陈柏瑜 Bo-Yu Chen

黄斌 Ronald Wong

罗冠兰 Koon-Lan Law

黎耀祥 Wayne Lai

雷宇扬 Simon Lui

苏志威 Edmond So

李灿森 Sam Lee

◎简 介

David(古天乐 饰)、碧咸(苏志威 饰)、碧咸的妹妹阿Ann(杨恭如 饰)、泉(李灿森 饰)从小一起长大,四人宛如兄弟姐妹,David与阿Ann更是青梅竹马。一日,阿Ann在夜总会做陪酒女郎时被黑道社团洪乐社的老大胜(方中信 饰)看上,随后,Ann在酒吧为David庆祝生日时遇到了胜。David与胜争风吃醋发生了争执,打斗中胜错手误伤了泉,使其成了植物人,悲愤不已的David发誓要帮泉报仇。碧咸好赌欠下高利贷无法偿还,被色魔雄要挟用Ann来还债。胜得知后派手下与David、碧咸一起去找色魔雄谈判,岂料谈判破裂双方大打出手,心狠手辣的David奋勇杀出一条血路,斩杀了色魔雄。一时间David闻名江湖,随后加入了洪乐社。David表现出色,很快获得了胜的赏识,他认为为泉报仇的时机已经到了……

  1. Quote:


  2. General

  3. Unique ID : 214067180459026232298954029603932494179 (0xA10BD6DC148CD5B797775E5AAD025963)

  4. Complete name : The Rules of the Game 1999 WEB-DL 1080p H264 AAC & DD2.0 3Audios-Dave.mkv

  5. Format : Matroska

  6. Format version : Version 4

  7. File size : 1.87 GiB

  8. Duration : 1 h 35 min

  9. Overall bit rate : 2 813 kb/s

  10. Encoded date : UTC 2021-06-05 13:36:27

  11. Writing application : mkvmerge v19.0.0 (‘Brave Captain‘) 64-bit

  12. Writing library : libebml v1.3.5 + libmatroska v1.4.8


  13. Video

  14. ID : 1

  15. Format : AVC

  16. Format/Info : Advanced Video Codec

  17. Format profile : High@L4

  18. Format settings : CABAC / 3 Ref Frames

  19. Format settings, CABAC : Yes

  20. Format settings, Reference fra : 3 frames

  21. Codec ID : V_MPEG4/ISO/AVC

  22. Duration : 1 h 35 min

  23. Bit rate : 2 046 kb/s

  24. Width : 1 920 pixels

  25. Height : 920 pixels

  26. Display aspect ratio : 2.087

  27. Frame rate mode : Constant

  28. Frame rate : 25.000 FPS

  29. Color space : YUV

  30. Chroma subsampling : 4:2:0

  31. Bit depth : 8 bits

  32. Scan type : Progressive

  33. Bits/(Pixel*Frame) : 0.046

  34. Stream size : 1.36 GiB (73%)

  35. Writing library : qiyi.com vtc-test

  36. Default : Yes

  37. Forced : No

  38. Color range : Limited

  39. Color primaries : BT.709

  40. Transfer characteristics : BT.709

  41. Matrix coefficients : BT.709


  42. Audio #1

  43. ID : 2

  44. Format : AAC LC

  45. Format/Info : Advanced Audio Codec Low Complexity

  46. Codec ID : A_AAC-2

  47. Duration : 1 h 35 min

  48. Bit rate : 124 kb/s

  49. Channel(s) : 2 channels

  50. Channel layout : L R

  51. Sampling rate : 44.1 kHz

  52. Frame rate : 43.066 FPS (1024 SPF)

  53. Compression mode : Lossy

  54. Stream size : 84.8 MiB (4%)

  55. Title : 粤语

  56. Language : Chinese

  57. Default : Yes

  58. Forced : No


  59. Audio #2

  60. ID : 3

  61. Format : AC-3

  62. Format/Info : Audio Coding 3

  63. Commercial name : Dolby Digital

  64. Codec ID : A_AC3

  65. Duration : 1 h 35 min

  66. Bit rate mode : Constant

  67. Bit rate : 320 kb/s

  68. Channel(s) : 2 channels

  69. Channel layout : L R

  70. Sampling rate : 48.0 kHz

  71. Frame rate : 31.250 FPS (1536 SPF)

  72. Compression mode : Lossy

  73. Stream size : 218 MiB (11%)

  74. Title : DVD 粤语

  75. Language : Chinese

  76. Service kind : Complete Main

  77. Default : No

  78. Forced : No


  79. Audio #3

  80. ID : 4

  81. Format : AC-3

  82. Format/Info : Audio Coding 3

  83. Commercial name : Dolby Digital

  84. Codec ID : A_AC3

  85. Duration : 1 h 35 min

  86. Bit rate mode : Constant

  87. Bit rate : 320 kb/s

  88. Channel(s) : 2 channels

  89. Channel layout : L R

  90. Sampling rate : 48.0 kHz

  91. Frame rate : 31.250 FPS (1536 SPF)

  92. Compression mode : Lossy

  93. Stream size : 218 MiB (11%)

  94. Title : DVD 国语

  95. Language : Chinese

  96. Service kind : Complete Main

  97. Default : No

  98. Forced : No


  99. Text #1

  100. ID : 5

  101. Format : UTF-8

  102. Codec ID : S_TEXT/UTF8

  103. Codec ID/Info : UTF-8 Plain Text

  104. Duration : 1 h 31 min

  105. Bit rate : 48 b/s

  106. Count of elements : 1349

  107. Stream size : 32.6 KiB (0%)

  108. Title : 简体中文

  109. Language : Chinese

  110. Default : Yes

  111. Forced : No


  112. Text #2

  113. ID : 6

  114. Format : UTF-8

  115. Codec ID : S_TEXT/UTF8

  116. Codec ID/Info : UTF-8 Plain Text

  117. Duration : 1 h 31 min

  118. Bit rate : 48 b/s

  119. Count of elements : 1349

  120. Stream size : 32.6 KiB (0%)

  121. Title : 繁体中文

  122. Language : Chinese

  123. Default : No

  124. Forced : No


  125. Text #3

  126. ID : 7

  127. Format : UTF-8

  128. Codec ID : S_TEXT/UTF8

  129. Codec ID/Info : UTF-8 Plain Text

  130. Duration : 1 h 31 min

  131. Bit rate : 52 b/s

  132. Count of elements : 1349

  133. Stream size : 35.2 KiB (0%)

  134. Title : 英语

  135. Language : English

  136. Default : No

  137. Forced : No

复制代码


文件下载


除非特别注明,本文『新家法[国粤双语.中文字幕].迅雷下载.The Rules of the Game.1999.1080p』来源于互联网机器人自动抓取,非本站原创。 浮游电影网不对本文拥有版权,如有侵犯,请联系邮箱:fuyouu#yandex.com[#换成@]投诉。我们会在15个工作日内删除。 但烦请转载时请标明出处:“本文转载于『浮游电影网』,原文地址:https://www.fuyouu.com/12361.html

评论吧骚年!

发表你的见解   

昵称*

E-mail*(建议输入,以便收到博主回复的提示邮件)

验证码*

您可以使用eMule或eMule Mod(Windows)、aMule(Win、Linux、Mac)等软件下载eD2k链接。。
eMule收藏集(.emulecollection)文件是您选中的所有链接的列表文件。eMule可以直接下载它们。
按住SHIFT键选择可以选中多个选择框。
可用文件名和大小选择器来选择文件。
文件名选择器帮您根据文件名称或后缀来选择文件。不分大小写。
符号使用:
和:空格( )、+
不包含:-
或:|
转义:一对英文引号("");
匹配开头:^
匹配结尾:$
例如:
选中所有名称中包含有“eMule”或“0.49c”字眼,但不包含有“exe”字眼的:emule|0.49c -exe
选中所有名称的开头是“eMule”,结尾是“0.49c”的:^emule 0.49c$
选中所有名称中带有“eMule 0.49c”的(必须是“eMule 0.49c”,中间没有别的字符,不能是“eMule fake 0.49c”),需要转义:"emule 0.49c"
大小选择器帮您根据文件大小选择文件。