当前位置: 首页 >> 港台电影 >> 爱情故事.迅雷下载[国粤双语.中文字幕].Basic Love.2009.WEB-DL.4K >> 正文

爱情故事.迅雷下载[国粤双语.中文字幕].Basic Love.2009.WEB-DL.4K

2021年06月08日 00:16:49     电影发布:来源于网络     电影分类:港台电影     评论(0)    

爱情故事.迅雷下载[国粤双语.中文字幕].Basic Love.2009.WEB DL.4K 爱情片 港台电影 第1张

◎译 名 爱情故事 / Basic Love

◎片 名 愛情故事

◎年 代 2009

◎产 地 中国香港

◎类 别 爱情

◎语 言 粤语

◎上映日期 2009-02-26

◎IMDb评分 5.2/10 from 79 users

◎IMDb链接 https://www.imdb.com/title/tt1382654/

◎豆瓣评分 6.3/10 from 3343 users

◎豆瓣链接 https://movie.douban.com/subject/3562429/

◎片 长 Hong Kong: 106 分钟

◎导 演 彭顺 Oxide Pang

◎编 剧 彭顺 Oxide Pang

◎主 演 郑佩佩 Pei-pei Cheng

周柏豪 Pakho Chau

江若琳 Elanne Kwong

文咏珊 Janice Man

赵俊承 Gary Chiu Tsun Shing

◎简 介

阿玲(江若琳 饰)一直保守着一个秘密,那就是她患有白血病的事实,即使是最好的朋友小榛(文咏珊 饰)和雷克斯(何浚尉 饰),她也没有透露半分。阿玲只希望能够和内心里所爱的那个人的影子一起,慢慢步向人生的终结。

在小榛的眼里,雷克斯的身影挥之不去,可是生性内向的她实在没有勇气向雷克斯表白自己的感情,同时,雷克色有些冷漠和捉摸不定的态度也让小榛对他们之间的感情产生了退却的心情。然而小榛不知道的是,一个名叫阿曦(徐正曦 饰)的男生在自己的身后,默默的看着这一切。阿玲的病发住院打破了几人之间关系的平衡,当一些秘密无法再隐藏的时候,他们究竟会怎样面对自己的感情呢?

  1. Quote:


  2. General

  3. Unique ID : 106394159182336204112714003334848007125 (0x500AC50B909D3204701CF038A94F4BD5)

  4. Complete name : Basic Love 2009 WEB-DL 4K H265 AAC & DDP 5.1 4Audios-Dave.mkv

  5. Format : Matroska

  6. Format version : Version 4

  7. File size : 4.62 GiB

  8. Duration : 1 h 40 min

  9. Overall bit rate : 6 590 kb/s

  10. Encoded date : UTC 2021-06-04 18:39:16

  11. Writing application : mkvmerge v19.0.0 (‘Brave Captain‘) 64-bit

  12. Writing library : libebml v1.3.5 + libmatroska v1.4.8


  13. Video

  14. ID : 1

  15. Format : HEVC

  16. Format/Info : High Efficiency Video Coding

  17. Format profile : Main@L6@Main

  18. Codec ID : V_MPEGH/ISO/HEVC

  19. Duration : 1 h 40 min

  20. Bit rate : 5 825 kb/s

  21. Width : 3 840 pixels

  22. Height : 2 160 pixels

  23. Display aspect ratio : 16:9

  24. Frame rate mode : Constant

  25. Frame rate : 24.000 FPS

  26. Color space : YUV

  27. Chroma subsampling : 4:2:0

  28. Bit depth : 8 bits

  29. Bits/(Pixel*Frame) : 0.029

  30. Stream size : 4.09 GiB (88%)

  31. Default : Yes

  32. Forced : No


  33. Audio #1

  34. ID : 2

  35. Format : E-AC-3

  36. Format/Info : Enhanced AC-3

  37. Commercial name : Dolby Digital Plus

  38. Codec ID : A_EAC3

  39. Duration : 1 h 40 min

  40. Bit rate mode : Constant

  41. Bit rate : 256 kb/s

  42. Channel(s) : 6 channels

  43. Channel layout : L R C LFE Ls Rs

  44. Sampling rate : 48.0 kHz

  45. Frame rate : 31.250 FPS (1536 SPF)

  46. Compression mode : Lossy

  47. Stream size : 184 MiB (4%)

  48. Title : 国语 DDP 5.1

  49. Language : Chinese

  50. Service kind : Complete Main

  51. Default : Yes

  52. Forced : No


  53. Audio #2

  54. ID : 3

  55. Format : AAC LC

  56. Format/Info : Advanced Audio Codec Low Complexity

  57. Codec ID : A_AAC-2

  58. Duration : 1 h 40 min

  59. Bit rate : 124 kb/s

  60. Channel(s) : 2 channels

  61. Channel layout : L R

  62. Sampling rate : 44.1 kHz

  63. Frame rate : 43.066 FPS (1024 SPF)

  64. Compression mode : Lossy

  65. Stream size : 89.3 MiB (2%)

  66. Title : 国语 AAC 2.0

  67. Language : Chinese

  68. Default : No

  69. Forced : No


  70. Audio #3

  71. ID : 4

  72. Format : E-AC-3

  73. Format/Info : Enhanced AC-3

  74. Commercial name : Dolby Digital Plus

  75. Codec ID : A_EAC3

  76. Duration : 1 h 40 min

  77. Bit rate mode : Constant

  78. Bit rate : 256 kb/s

  79. Channel(s) : 6 channels

  80. Channel layout : L R C LFE Ls Rs

  81. Sampling rate : 48.0 kHz

  82. Frame rate : 31.250 FPS (1536 SPF)

  83. Compression mode : Lossy

  84. Stream size : 184 MiB (4%)

  85. Title : 粤语 DDP 5.1

  86. Language : Chinese

  87. Service kind : Complete Main

  88. Default : No

  89. Forced : No


  90. Audio #4

  91. ID : 5

  92. Format : AAC LC

  93. Format/Info : Advanced Audio Codec Low Complexity

  94. Codec ID : A_AAC-2

  95. Duration : 1 h 40 min

  96. Bit rate : 124 kb/s

  97. Channel(s) : 2 channels

  98. Channel layout : L R

  99. Sampling rate : 44.1 kHz

  100. Frame rate : 43.066 FPS (1024 SPF)

  101. Compression mode : Lossy

  102. Stream size : 89.3 MiB (2%)

  103. Title : 粤语 AAC 2.0

  104. Language : Chinese

  105. Default : No

  106. Forced : No


  107. Text #1

  108. ID : 6

  109. Format : UTF-8

  110. Codec ID : S_TEXT/UTF8

  111. Codec ID/Info : UTF-8 Plain Text

  112. Duration : 1 h 34 min

  113. Bit rate : 31 b/s

  114. Count of elements : 922

  115. Stream size : 21.6 KiB (0%)

  116. Title : 简体中文

  117. Language : Chinese

  118. Default : Yes

  119. Forced : No


  120. Text #2

  121. ID : 7

  122. Format : UTF-8

  123. Codec ID : S_TEXT/UTF8

  124. Codec ID/Info : UTF-8 Plain Text

  125. Duration : 1 h 34 min

  126. Bit rate : 31 b/s

  127. Count of elements : 922

  128. Stream size : 21.6 KiB (0%)

  129. Title : 繁体中文

  130. Language : Chinese

  131. Default : No

  132. Forced : No


  133. Text #3

  134. ID : 8

  135. Format : UTF-8

  136. Codec ID : S_TEXT/UTF8

  137. Codec ID/Info : UTF-8 Plain Text

  138. Duration : 1 h 34 min

  139. Bit rate : 34 b/s

  140. Count of elements : 922

  141. Stream size : 23.7 KiB (0%)

  142. Title : 英语

  143. Language : English

  144. Default : No

  145. Forced : No


  146. Text #4

  147. ID : 9

  148. Format : UTF-8

  149. Codec ID : S_TEXT/UTF8

  150. Codec ID/Info : UTF-8 Plain Text

  151. Duration : 1 h 34 min

  152. Bit rate : 48 b/s

  153. Count of elements : 922

  154. Stream size : 33.6 KiB (0%)

  155. Title : 韩语

  156. Language : Korean

  157. Default : No

  158. Forced : No


  159. Text #5

  160. ID : 10

  161. Format : UTF-8

  162. Codec ID : S_TEXT/UTF8

  163. Codec ID/Info : UTF-8 Plain Text

  164. Duration : 1 h 34 min

  165. Bit rate : 86 b/s

  166. Count of elements : 922

  167. Stream size : 60.2 KiB (0%)

  168. Title : 泰语

  169. Language : Thai

  170. Default : No

  171. Forced : No


  172. Text #6

  173. ID : 11

  174. Format : UTF-8

  175. Codec ID : S_TEXT/UTF8

  176. Codec ID/Info : UTF-8 Plain Text

  177. Duration : 1 h 34 min

  178. Bit rate : 36 b/s

  179. Count of elements : 922

  180. Stream size : 25.2 KiB (0%)

  181. Title : 马来语

  182. Language : Malay

  183. Default : No

  184. Forced : No


  185. Text #7

  186. ID : 12

  187. Format : UTF-8

  188. Codec ID : S_TEXT/UTF8

  189. Codec ID/Info : UTF-8 Plain Text

  190. Duration : 1 h 34 min

  191. Bit rate : 47 b/s

  192. Count of elements : 922

  193. Stream size : 33.2 KiB (0%)

  194. Title : 越南语

  195. Language : Vietnamese

  196. Default : No

  197. Forced : No


  198. Text #8

  199. ID : 13

  200. Format : UTF-8

  201. Codec ID : S_TEXT/UTF8

  202. Codec ID/Info : UTF-8 Plain Text

  203. Duration : 1 h 34 min

  204. Bit rate : 37 b/s

  205. Count of elements : 922

  206. Stream size : 26.1 KiB (0%)

  207. Title : 印尼语

  208. Language : Indonesian

  209. Default : No

  210. Forced : No


  211. Text #9

  212. ID : 14

  213. Format : UTF-8

  214. Codec ID : S_TEXT/UTF8

  215. Codec ID/Info : UTF-8 Plain Text

  216. Duration : 1 h 34 min

  217. Bit rate : 37 b/s

  218. Count of elements : 922

  219. Stream size : 25.9 KiB (0%)

  220. Title : 西班牙语

  221. Language : Spanish

  222. Default : No

  223. Forced : No


  224. Text #10

  225. ID : 15

  226. Format : UTF-8

  227. Codec ID : S_TEXT/UTF8

  228. Codec ID/Info : UTF-8 Plain Text

  229. Duration : 1 h 34 min

  230. Bit rate : 39 b/s

  231. Count of elements : 922

  232. Stream size : 27.2 KiB (0%)

  233. Title : 葡萄牙语

  234. Language : Portuguese

  235. Default : No

  236. Forced : No


  237. Text #11

  238. ID : 16

  239. Format : UTF-8

  240. Codec ID : S_TEXT/UTF8

  241. Codec ID/Info : UTF-8 Plain Text

  242. Duration : 1 h 34 min

  243. Bit rate : 48 b/s

  244. Count of elements : 922

  245. Stream size : 34.0 KiB (0%)

  246. Title : 阿拉伯语

  247. Language : Arabic

  248. Default : No

  249. Forced : No

复制代码


文件下载


除非特别注明,本文『爱情故事.迅雷下载[国粤双语.中文字幕].Basic Love.2009.WEB-DL.4K』来源于互联网机器人自动抓取,非本站原创。 浮游电影网不对本文拥有版权,如有侵犯,请联系邮箱:fuyouu#yandex.com[#换成@]投诉。我们会在15个工作日内删除。 但烦请转载时请标明出处:“本文转载于『浮游电影网』,原文地址:https://www.fuyouu.com/12357.html

评论吧骚年!

发表你的见解   

昵称*

E-mail*(建议输入,以便收到博主回复的提示邮件)

验证码*

您可以使用eMule或eMule Mod(Windows)、aMule(Win、Linux、Mac)等软件下载eD2k链接。。
eMule收藏集(.emulecollection)文件是您选中的所有链接的列表文件。eMule可以直接下载它们。
按住SHIFT键选择可以选中多个选择框。
可用文件名和大小选择器来选择文件。
文件名选择器帮您根据文件名称或后缀来选择文件。不分大小写。
符号使用:
和:空格( )、+
不包含:-
或:|
转义:一对英文引号("");
匹配开头:^
匹配结尾:$
例如:
选中所有名称中包含有“eMule”或“0.49c”字眼,但不包含有“exe”字眼的:emule|0.49c -exe
选中所有名称的开头是“eMule”,结尾是“0.49c”的:^emule 0.49c$
选中所有名称中带有“eMule 0.49c”的(必须是“eMule 0.49c”,中间没有别的字符,不能是“eMule fake 0.49c”),需要转义:"emule 0.49c"
大小选择器帮您根据文件大小选择文件。