当前位置: 首页 >> 欧美电影 >> 暴力史 迅雷下载[中文字幕].A.History.of.Violence.2005.WEB-DL.2160p >> 正文

暴力史 迅雷下载[中文字幕].A.History.of.Violence.2005.WEB-DL.2160p

2021年06月04日 10:41:12     电影发布:来源于网络     电影分类:欧美电影     评论(0)    

暴力史 迅雷下载[中文字幕].A.History.of.Violence.2005.WEB DL.2160p 犯罪片 惊悚片 动作片 剧情片 欧美电影 第1张

◎译 名 暴力史 / 暴力事件 / 暴力效應

◎片 名 A History of Violence

◎年 代 2005

◎产 地 美国 / 德国

◎类 别 剧情 / 动作 / 惊悚 / 犯罪

◎语 言 英语

◎上映日期 2005-09-30(美国)

◎IMDb评分 7.4/10 from 216701 users

◎IMDb链接 https://www.imdb.com/title/tt0399146

◎豆瓣评分 7.4/10 from 18171 users

◎豆瓣链接 https://movie.douban.com/subject/1422917/

◎片 长 96 分钟

◎导 演 David Cronenberg

◎编 剧 Josh Olson

◎主 演 Viggo Mortensen

Maria Bello

Ed Harris

William Hurt

Ashton Holmes

◎标 签 美国 | 暴力 | 犯罪 | DavidCronenberg | 剧情 | 动作 | 2005 | 美国电影

◎简 介

暴力对于生活的秩序,对于各种不同处境的人,如何在亦正亦邪的界限徘徊?

汤姆(维果·莫特森 Viggo Mortensen饰)是小镇上再平凡不过的一家之主,开着一间小店谋生。某日遇上前来抢劫的歹徒,为了保住伙计的生命,汤姆奋而干掉了这帮不速之客,他的英勇神武成为了人们津津乐道的话题。媒体对此事的报道,也把汤姆一家赤裸裸地放置在公众视线里。

这件事到底是改变了原本的汤姆,还是让汤姆回到本来的自己,这个谁也说不清——因为,汤姆的过往随之而渐渐浮出水面。黑道老大带着手下找上门来,这意味着汤姆将不能再隐藏自己曾经跟暴力亲密接触过的身份。妻子艾迪(玛丽亚·贝罗 Maria Bello饰)得知丈夫的秘密,非常生气;更糟糕的是,汤姆看到暴力的阴霾正渐渐笼罩上自己的儿子;暴力又一次彻底地潜入本来风平浪静的生活。

◎获奖情况

第78届奥斯卡金像奖(2006)

最佳男配角(提名) 威廉·赫特

最佳改编剧本(提名) 乔什·奥尔森

第58届戛纳电影节(2005)

主竞赛单元 金棕榈奖(提名) 大卫·柯南伯格

第63届金球奖(2006)

电影类 最佳剧情片(提名)

电影类 剧情片最佳女主角(提名) 玛丽亚·贝罗

第59届英国电影学院奖(2006)

电影奖 最佳改编剧本(提名) 乔什·奥尔森

第6届美国电影学会奖(2005)

年度佳片

  1. 引用



  2. General

  3. Complete name : A.History.of.Violence.2005.WEB-DL.2160p.H265.AAC-PTHweb.mp4

  4. Format : MPEG-4

  5. Format profile : Base Media

  6. Codec ID : isom (isom/iso2/mp41)

  7. File size : 1.40 GiB

  8. Duration : 1 h 30 min

  9. Overall bit rate : 2 198 kb/s

  10. Writing application : Lavf58.32.104


  11. Video

  12. ID : 1

  13. Format : HEVC

  14. Format/Info : High Efficiency Video Coding

  15. Format profile : Main@L5@Main

  16. Codec ID : hev1

  17. Codec ID/Info : High Efficiency Video Coding

  18. Duration : 1 h 30 min

  19. Bit rate : 2 002 kb/s

  20. Width : 3 840 pixels

  21. Height : 2 160 pixels

  22. Display aspect ratio : 16:9

  23. Frame rate mode : Variable

  24. Frame rate : 23.976 (23976/1000/53354) FPS

  25. Minimum frame rate : 23.974 FPS

  26. Maximum frame rate : 23.981 FPS

  27. Color space : YUV

  28. Chroma subsampling : 4:2:0

  29. Bit depth : 8 bits

  30. Bits/(Pixel*Frame) : 0.010

  31. Stream size : 1.27 GiB (91%)

  32. Color range : Limited

  33. Color primaries : BT.709

  34. Transfer characteristics : BT.709

  35. Matrix coefficients : BT.709

  36. Codec configuration box : hvcC


  37. Audio

  38. ID : 2

  39. Format : AAC LC

  40. Format/Info : Advanced Audio Codec Low Complexity

  41. Codec ID : mp4a-40-2

  42. Duration : 1 h 30 min

  43. Bit rate mode : Constant

  44. Bit rate : 192 kb/s

  45. Channel(s) : 2 channels

  46. Channel layout : L R

  47. Sampling rate : 44.1 kHz

  48. Frame rate : 43.066 FPS (1024 SPF)

  49. Compression mode : Lossy

  50. Stream size : 123 MiB (9%)

  51. Default : Yes

  52. Alternate group : 1


复制代码


文件下载


除非特别注明,本文『暴力史 迅雷下载[中文字幕].A.History.of.Violence.2005.WEB-DL.2160p』来源于互联网机器人自动抓取,非本站原创。 浮游电影网不对本文拥有版权,如有侵犯,请联系邮箱:fuyouu#yandex.com[#换成@]投诉。我们会在15个工作日内删除。 但烦请转载时请标明出处:“本文转载于『浮游电影网』,原文地址:https://www.fuyouu.com/12274.html

评论吧骚年!

发表你的见解   

昵称*

E-mail*(建议输入,以便收到博主回复的提示邮件)

验证码*

您可以使用eMule或eMule Mod(Windows)、aMule(Win、Linux、Mac)等软件下载eD2k链接。。
eMule收藏集(.emulecollection)文件是您选中的所有链接的列表文件。eMule可以直接下载它们。
按住SHIFT键选择可以选中多个选择框。
可用文件名和大小选择器来选择文件。
文件名选择器帮您根据文件名称或后缀来选择文件。不分大小写。
符号使用:
和:空格( )、+
不包含:-
或:|
转义:一对英文引号("");
匹配开头:^
匹配结尾:$
例如:
选中所有名称中包含有“eMule”或“0.49c”字眼,但不包含有“exe”字眼的:emule|0.49c -exe
选中所有名称的开头是“eMule”,结尾是“0.49c”的:^emule 0.49c$
选中所有名称中带有“eMule 0.49c”的(必须是“eMule 0.49c”,中间没有别的字符,不能是“eMule fake 0.49c”),需要转义:"emule 0.49c"
大小选择器帮您根据文件大小选择文件。