当前位置: 首页 >> 欧美电影 >> 三脚猫部队.4K迅雷下载.[中文字幕].Delta.Farce.2007.WEB-DL.2160p >> 正文

三脚猫部队.4K迅雷下载.[中文字幕].Delta.Farce.2007.WEB-DL.2160p

2021年06月01日 15:44:54     电影发布:来源于网络     电影分类:欧美电影     评论(0)    

三脚猫部队.4K迅雷下载.[中文字幕].Delta.Farce.2007.WEB DL.2160p 冒险片 动作片 喜剧片 欧美电影 第1张

◎译 名 三脚猫部队/三角洲部队闹剧/呆瓜从军/拉瑞参军记

◎片 名 Delta Farce

◎年 代 2007

◎产 地 美国

◎类 别 喜剧 / 动作 / 冒险

◎语 言 英语,西班牙语

◎上映日期 2007-05-11

◎IMDb评分 3.6/10 from 10719 users

◎IMDb链接 https://www.imdb.com/title/tt0800003/

◎豆瓣评分 6.0/10 from 2621 users

◎豆瓣链接 https://movie.douban.com/subject/1947680/

◎片 长 USA: 90 分钟

◎主 演 王牌接线员拉里 Larry The Cable Guy

克里斯蒂娜·摩尔 Christina Moore

比尔·恩格瓦尔 Bill Engvall

丽莎·兰帕内利 Lisa Lampanelli

DJ·考尔斯 DJ Qualls

路易斯·查韦斯 Luis Chávez

Lance Smith

Carlos Moreno Jr.

Chris Spencer

小托马斯·罗萨莱斯 Thomas Rosales Jr.

埃德·欧罗斯 Ed O'Ross

杰夫·邓纳姆 Jeff Dunham

凯斯·大卫 Keith David

埃米里奥·瑞弗拉 Emilio Rivera

马利索·妮可 Marisol Nichols

迈克尔·帕帕约翰 Michael Papajohn

丹尼·特雷霍 Danny Trejo

格伦·莫肖尔 Glenn Morshower

谢里·德赛 Shelly Desai

Toby Holguin

尼古拉斯·圭拉科 Nicholas Guilak

罗兰多·莫利纳 Rolando Molina

◎标 签 喜剧 | 美国 | 搞笑 | 恶搞 | 美国电影 | 战争 | 2007 | 三角猫特种部队

◎简 介

笨手笨脚的拉里(王牌接线员拉里 Larry The Cable Guy饰)刚刚度过他人生中最糟糕的一天,极度郁闷的拉里决定约上他的邻居比尔(比尔·恩格瓦尔 Bill Engvall饰)以及从小玩到大的好友埃弗雷特(DJ·考尔斯 DJ Qualls饰)一醉解千愁,趁这个周末好好散散心。正当“蠢蛋三人组”喝到尽兴的时候,他们居然被一个军官误认为是开小差的士兵而被莫名其妙地赶上飞机,准备派到伊拉克战场作战。更离谱的是,“蠢蛋三人组” 被错误地空投到了墨西哥的陌生小镇上,三人还信以为真以为他们正身处中东,决定大干一场。当地军阀卡洛斯·桑坦纳(丹尼·特乔 Danny Trejo饰)残暴不仁,危害百姓。“蠢蛋三人组”在误打误撞下,竟然阴差阳错地从一伙强盗手中解救出了被围困的村民。一时间,三人成为了小镇人民心中的大英雄。

  1. 引用



  2. General

  3. Complete name : Delta.Farce.2007.WEB-DL.2160p.H265.AAC-PTHweb.mp4

  4. Format : MPEG-4

  5. Format profile : Base Media

  6. Codec ID : isom (isom/iso2/mp41)

  7. File size : 2.63 GiB

  8. Duration : 1 h 28 min

  9. Overall bit rate mode : Variable

  10. Overall bit rate : 4 240 kb/s

  11. Writing application : Lavf58.32.104


  12. Video

  13. ID : 1

  14. Format : HEVC

  15. Format/Info : High Efficiency Video Coding

  16. Format profile : Main@L5@Main

  17. Codec ID : hev1

  18. Codec ID/Info : High Efficiency Video Coding

  19. Duration : 1 h 28 min

  20. Bit rate : 4 044 kb/s

  21. Width : 3 840 pixels

  22. Height : 2 152 pixels

  23. Display aspect ratio : 16:9

  24. Frame rate mode : Constant

  25. Frame rate : 25.000 FPS

  26. Color space : YUV

  27. Chroma subsampling : 4:2:0

  28. Bit depth : 8 bits

  29. Bits/(Pixel*Frame) : 0.020

  30. Stream size : 2.50 GiB (95%)

  31. Codec configuration box : hvcC


  32. Audio

  33. ID : 2

  34. Format : AAC LC

  35. Format/Info : Advanced Audio Codec Low Complexity

  36. Codec ID : mp4a-40-2

  37. Duration : 1 h 28 min

  38. Bit rate mode : Variable

  39. Bit rate : 192 kb/s

  40. Maximum bit rate : 197 kb/s

  41. Channel(s) : 2 channels

  42. Channel layout : L R

  43. Sampling rate : 44.1 kHz

  44. Frame rate : 43.066 FPS (1024 SPF)

  45. Compression mode : Lossy

  46. Stream size : 120 MiB (4%)

  47. Default : Yes

  48. Alternate group : 1


复制代码


文件下载


除非特别注明,本文『三脚猫部队.4K迅雷下载.[中文字幕].Delta.Farce.2007.WEB-DL.2160p』来源于互联网机器人自动抓取,非本站原创。 浮游电影网不对本文拥有版权,如有侵犯,请联系邮箱:fuyouu#yandex.com[#换成@]投诉。我们会在15个工作日内删除。 但烦请转载时请标明出处:“本文转载于『浮游电影网』,原文地址:https://www.fuyouu.com/12228.html

评论吧骚年!

发表你的见解   

昵称*

E-mail*(建议输入,以便收到博主回复的提示邮件)

验证码*

您可以使用eMule或eMule Mod(Windows)、aMule(Win、Linux、Mac)等软件下载eD2k链接。。
eMule收藏集(.emulecollection)文件是您选中的所有链接的列表文件。eMule可以直接下载它们。
按住SHIFT键选择可以选中多个选择框。
可用文件名和大小选择器来选择文件。
文件名选择器帮您根据文件名称或后缀来选择文件。不分大小写。
符号使用:
和:空格( )、+
不包含:-
或:|
转义:一对英文引号("");
匹配开头:^
匹配结尾:$
例如:
选中所有名称中包含有“eMule”或“0.49c”字眼,但不包含有“exe”字眼的:emule|0.49c -exe
选中所有名称的开头是“eMule”,结尾是“0.49c”的:^emule 0.49c$
选中所有名称中带有“eMule 0.49c”的(必须是“eMule 0.49c”,中间没有别的字符,不能是“eMule fake 0.49c”),需要转义:"emule 0.49c"
大小选择器帮您根据文件大小选择文件。