当前位置: 首页 >> 欧美电影 >> 地牢围攻4K迅雷下载[中文字幕]In.the.Name.of.the.King.A.Dungeon.Siege.Tale.2007.WEB-DL.2160p >> 正文

地牢围攻4K迅雷下载[中文字幕]In.the.Name.of.the.King.A.Dungeon.Siege.Tale.2007.WEB-DL.2160p

2021年06月01日 15:41:24     电影发布:来源于网络     电影分类:欧美电影     评论(0)    

地牢围攻4K迅雷下载[中文字幕]In.the.Name.of.the.King.A.Dungeon.Siege.Tale.2007.WEB DL.2160p 奇幻片 冒险片 动作片 剧情片 欧美电影 第1张

◎译 名 地牢围攻 / 地牢围攻:以国王的名义 / 末日危城:王者之役

◎片 名 In the Name of the King: A Dungeon Siege Tale

◎年 代 2007

◎产 地 德国 / 加拿大 / 美国

◎类 别 剧情 / 动作 / 奇幻 / 冒险

◎语 言 英语

◎上映日期 2007-11-29(德国) / 2010-05-18(中国大陆)

◎IMDb评分 3.8/10 from 44325 users

◎IMDb链接 https://www.imdb.com/title/tt0460780

◎豆瓣评分 4.7/10 from 3446 users

◎豆瓣链接 https://movie.douban.com/subject/1428179/

◎片 长 127 分钟

◎导 演 乌维·鲍尔 Uwe Boll

◎编 剧 道格·泰勒 Doug Taylor

◎主 演 杰森·斯坦森 Jason Statham

莉莉·索博斯基 Leelee Sobieski

约翰·瑞斯-戴维斯 John Rhys-Davies

朗·普尔曼 Ron Perlman

克莱尔·弗兰妮 Claire Forlani

克里斯塔娜·洛肯 Kristanna Loken

雷·利奥塔 Ray Liotta

伯特·雷诺兹 Burt Reynolds

塔尼亚·索尔尼尔 Tania Saulnier

麦克·多普德 Mike Dopud

达伦·萨赫拉维 Darren Shahlavi

马修·里沃德 Matthew Lillard

迈克尔·艾克朗德 Michael Eklund

Kevin D. Murray

米歇尔·哈里逊 Michelle Harrison

凯莉·弗莱明 Carrie Fleming

威尔·桑德森 Will Sanderson

布莱恩·J·怀特 Brian J. White

萨奇·布洛克勒班克 Sage Brocklebank

艾伦·坡尔 Aaron Pearl

伊娃·帕德贝格 Eva Padberg

加布里埃尔·罗斯 Gabrielle Rose

科林·福特 Colin Ford

丹尼尔·博乐奥 Daniel Boileau

◎标 签 魔幻 | 美国 | 动作 | JasonStatham | 奇幻 | 游戏改编 | 德国 | 电影

◎简 介

故事发生在一个历史悠久的古老王国之中,邪恶的魔鬼巫师加里安(雷·利奥塔 Ray Liotta 饰)盯上了这片宁静祥和的土地,带领着他的爪牙,他们血洗了村庄,杀害了农夫戴蒙(杰森·斯坦森 Jason Statham 饰)的孩子,并且夺走了他的妻子索拉纳(克莱尔·弗兰妮 Claire Forlani 饰)。愤怒和绝望之中,戴蒙决心报仇并且夺回妻子。在国王康雷德(伯特·雷诺兹 Burt Reynolds 饰)和善良法师莫瑞科(约翰·里斯-戴维斯 John Rhys-Davies 饰)的帮助之下,戴蒙集结了一支精明强干的敢死队,然而,他们所要面对的敌人却并不仅仅是嗜血残暴的野兽兵团这么简单,众人需要抵抗的,是更邪恶的,更黑暗的,更强大的黑暗魔法。

◎获奖情况

第29届金酸莓奖(2009)

最差影片(提名)

最差男配角(提名) 伯特·雷诺兹

最差女配角(提名) 莉莉·索博斯基

最差导演 乌维·鲍尔

最差剧本(提名) 道格·泰勒

  1. 引用



  2. Complete name : In.the.Name.of.the.King.A.Dungeon.Siege.Tale.2007.WEB-DL.1080p.H264.AAC-PTHweb.mp4

  3. Format : MPEG-4

  4. Format profile : Base Media

  5. Codec ID : isom (isom/iso2/avc1/mp41)

  6. File size : 2.22 GiB

  7. Duration : 2 h 2 min

  8. Overall bit rate mode : Variable

  9. Overall bit rate : 2 593 kb/s

  10. Writing application : Lavf58.32.104


  11. Video

  12. ID : 1

  13. Format : AVC

  14. Format/Info : Advanced Video Codec

  15. Format profile : High@L5

  16. Format settings : CABAC / 5 Ref Frames

  17. Format settings, CABAC : Yes

  18. Format settings, Reference frames : 5 frames

  19. Codec ID : avc1

  20. Codec ID/Info : Advanced Video Coding

  21. Duration : 2 h 2 min

  22. Bit rate : 2 429 kb/s

  23. Width : 1 920 pixels

  24. Height : 1 080 pixels

  25. Display aspect ratio : 16:9

  26. Frame rate mode : Constant

  27. Frame rate : 25.000 FPS

  28. Color space : YUV

  29. Chroma subsampling : 4:2:0

  30. Bit depth : 8 bits

  31. Scan type : Progressive

  32. Bits/(Pixel*Frame) : 0.047

  33. Stream size : 2.08 GiB (94%)

  34. Color range : Limited

  35. Color primaries : BT.709

  36. Transfer characteristics : BT.709

  37. Matrix coefficients : BT.709

  38. Codec configuration box : avcC


  39. Audio

  40. ID : 2

  41. Format : AAC LC

  42. Format/Info : Advanced Audio Codec Low Complexity

  43. Codec ID : mp4a-40-2

  44. Duration : 2 h 2 min

  45. Bit rate mode : Variable

  46. Bit rate : 158 kb/s

  47. Maximum bit rate : 160 kb/s

  48. Channel(s) : 2 channels

  49. Channel layout : L R

  50. Sampling rate : 44.1 kHz

  51. Frame rate : 43.066 FPS (1024 SPF)

  52. Compression mode : Lossy

  53. Stream size : 138 MiB (6%)

  54. Default : Yes

  55. Alternate group : 1

复制代码


文件下载


除非特别注明,本文『地牢围攻4K迅雷下载[中文字幕]In.the.Name.of.the.King.A.Dungeon.Siege.Tale.2007.WEB-DL.2160p』来源于互联网机器人自动抓取,非本站原创。 浮游电影网不对本文拥有版权,如有侵犯,请联系邮箱:fuyouu#yandex.com[#换成@]投诉。我们会在15个工作日内删除。 但烦请转载时请标明出处:“本文转载于『浮游电影网』,原文地址:https://www.fuyouu.com/12226.html

评论吧骚年!

发表你的见解   

昵称*

E-mail*(建议输入,以便收到博主回复的提示邮件)

验证码*

您可以使用eMule或eMule Mod(Windows)、aMule(Win、Linux、Mac)等软件下载eD2k链接。。
eMule收藏集(.emulecollection)文件是您选中的所有链接的列表文件。eMule可以直接下载它们。
按住SHIFT键选择可以选中多个选择框。
可用文件名和大小选择器来选择文件。
文件名选择器帮您根据文件名称或后缀来选择文件。不分大小写。
符号使用:
和:空格( )、+
不包含:-
或:|
转义:一对英文引号("");
匹配开头:^
匹配结尾:$
例如:
选中所有名称中包含有“eMule”或“0.49c”字眼,但不包含有“exe”字眼的:emule|0.49c -exe
选中所有名称的开头是“eMule”,结尾是“0.49c”的:^emule 0.49c$
选中所有名称中带有“eMule 0.49c”的(必须是“eMule 0.49c”,中间没有别的字符,不能是“eMule fake 0.49c”),需要转义:"emule 0.49c"
大小选择器帮您根据文件大小选择文件。