当前位置: 首页 >> 欧美电影 >> 重生男人.4K迅雷下载[中文字幕].Repo.Men.2010.WEB-DL.2160p >> 正文

重生男人.4K迅雷下载[中文字幕].Repo.Men.2010.WEB-DL.2160p

2021年06月01日 15:38:13     电影发布:来源于网络     电影分类:欧美电影     评论(0)    

重生男人.4K迅雷下载[中文字幕].Repo.Men.2010.WEB DL.2160p 科幻片 犯罪片 惊悚片 动作片 剧情片 欧美电影 第1张

◎译 名 重生男人 / Repossession Men / 回收人 / 索命条码(台) / 追讨人 / 重生曼波

◎片 名 Repo Men

◎年 代 2010

◎产 地 美国 / 加拿大

◎类 别 剧情 / 动作 / 科幻 / 惊悚 / 犯罪

◎语 言 英语

◎上映日期 2010-03-19(美国/加拿大)

◎IMDb评分 6.3/10 from 101012 users

◎IMDb链接 https://www.imdb.com/title/tt1053424

◎豆瓣评分 7.3/10 from 24498 users

◎豆瓣链接 https://movie.douban.com/subject/2265778/

◎片 长 111 分钟

◎导 演 米格尔·萨普什尼克 Miguel Sapochnik

◎编 剧 加里特·勒纳 Garrett Lerner

◎主 演 裘德·洛 Jude Law

福里斯特·惠特克 Forest Whitaker

艾莉丝·布拉加 Alice Braga

列维·施瑞博尔 Liev Schreiber

卡里斯·范·侯登 Carice van Houten

钱德勒·坎特布瑞 Chandler Canterbury

乔·平格 Joe Pingue

莉萨·拉皮拉 Liza Lapira

蒂凡尼·埃斯佩森 Tiffany Espensen

伊薇特·尼科尔·布朗 Yvette Nicole Brown

罗伯特·菲茨杰拉德·迪格斯 RZA

坦娅·克拉克 Tanya Clarke

拉夫·洛 Raff Law

马蒂·亚当斯 Marty Adams

丹尼尔·卡什 Daniel Kash

多米尼克·库佐科里亚 Dominic Cuzzocrea

卡洛斯·迪亚兹 Carlos Diaz

坦妮斯·伯内特 Tannis Burnett

迈克尔·克莱姆 Michael Cram

西蒙·诺斯伍德 Simon Northwood

约翰·麦克唐纳 John MacDonald

尼尔·怀特利 Neil Whitely

迈克尔·格雷耶斯基 Michal Grajewski

丹尼斯·秋山 Denis Akiyama

罗布·阿切尔 Rob Archer

罗宾·阿特金·唐斯 Robin Atkin Downes

加万·福克斯 Gavin Fox

Larry Gilman

Christina Giuseppe Silva

Ashleigh Hubbard

约翰·雷吉扎莫 John Leguizamo

威尔·麦克法登 Will McFadden

克里斯蒂娜·佩希奇 Kristina Pesic

Sherry Shaoling

丽娜·苏 Lina So

Devon Tucker

◎标 签 科幻 | 美国 | JudeLaw | 裘德·洛 | 动作 | 惊悚 | 美国电影 | 2010

◎简 介

未来,随着科技的不断进步,人类医学也达到前所未有的高度。当你某个器官患有疾病时,不用担心自己会死于非命,也不必苦苦等待遥遥无期的捐赠器官,只要移植人造器官即可回归正常的生活。当然,天下没有免费的午餐,全新的器官伴随着高昂的购买金,受移植者一旦无法承担这笔费用,将面临被杀害并被夺走器官的悲惨命运。雷米(裘德·洛 Jude Law 饰)隶属这家销售器官的联盟公司,他的工作是追杀那些拖延还款的客人。凭借这份冷酷无情的工作,他过着养尊处优的生活。然而厄运突然降临,他因重病移植了联盟的人造心脏,更因无法偿还款项而遭到昔日好友的追杀。猎人和猎物的身份一夜之间对调……

◎获奖情况

第12届美国青少年选择奖(2010)

最佳科幻电影男演员(提名) 裘德·洛

  1. 引用



  2. General

  3. Complete name : Repo.Men.2010.WEB-DL.2160p.H265.AAC-PTHweb.mp4

  4. Format : MPEG-4

  5. Format profile : Base Media

  6. Codec ID : isom (isom/iso2/mp41)

  7. File size : 2.63 GiB

  8. Duration : 1 h 50 min

  9. Overall bit rate mode : Variable

  10. Overall bit rate : 3 416 kb/s

  11. Writing application : Lavf58.32.104


  12. Video

  13. ID : 1

  14. Format : HEVC

  15. Format/Info : High Efficiency Video Coding

  16. Format profile : Main@L5@Main

  17. Codec ID : hev1

  18. Codec ID/Info : High Efficiency Video Coding

  19. Duration : 1 h 50 min

  20. Bit rate : 3 220 kb/s

  21. Width : 3 840 pixels

  22. Height : 1 808 pixels

  23. Display aspect ratio : 2.124

  24. Original display aspect ratio : 2.123

  25. Frame rate mode : Constant

  26. Frame rate : 25.000 FPS

  27. Color space : YUV

  28. Chroma subsampling : 4:2:0

  29. Bit depth : 8 bits

  30. Bits/(Pixel*Frame) : 0.019

  31. Stream size : 2.48 GiB (94%)

  32. Color range : Limited

  33. Color primaries : BT.709

  34. Transfer characteristics : BT.709

  35. Matrix coefficients : BT.709

  36. Codec configuration box : hvcC


  37. Audio

  38. ID : 2

  39. Format : AAC LC

  40. Format/Info : Advanced Audio Codec Low Complexity

  41. Codec ID : mp4a-40-2

  42. Duration : 1 h 50 min

  43. Bit rate mode : Variable

  44. Bit rate : 192 kb/s

  45. Channel(s) : 2 channels

  46. Channel layout : L R

  47. Sampling rate : 44.1 kHz

  48. Frame rate : 43.066 FPS (1024 SPF)

  49. Compression mode : Lossy

  50. Stream size : 149 MiB (6%)

  51. Default : Yes

  52. Alternate group : 1

复制代码


文件下载


除非特别注明,本文『重生男人.4K迅雷下载[中文字幕].Repo.Men.2010.WEB-DL.2160p』来源于互联网机器人自动抓取,非本站原创。 浮游电影网不对本文拥有版权,如有侵犯,请联系邮箱:fuyouu#yandex.com[#换成@]投诉。我们会在15个工作日内删除。 但烦请转载时请标明出处:“本文转载于『浮游电影网』,原文地址:https://www.fuyouu.com/12224.html

评论吧骚年!

发表你的见解   

昵称*

E-mail*(建议输入,以便收到博主回复的提示邮件)

验证码*

您可以使用eMule或eMule Mod(Windows)、aMule(Win、Linux、Mac)等软件下载eD2k链接。。
eMule收藏集(.emulecollection)文件是您选中的所有链接的列表文件。eMule可以直接下载它们。
按住SHIFT键选择可以选中多个选择框。
可用文件名和大小选择器来选择文件。
文件名选择器帮您根据文件名称或后缀来选择文件。不分大小写。
符号使用:
和:空格( )、+
不包含:-
或:|
转义:一对英文引号("");
匹配开头:^
匹配结尾:$
例如:
选中所有名称中包含有“eMule”或“0.49c”字眼,但不包含有“exe”字眼的:emule|0.49c -exe
选中所有名称的开头是“eMule”,结尾是“0.49c”的:^emule 0.49c$
选中所有名称中带有“eMule 0.49c”的(必须是“eMule 0.49c”,中间没有别的字符,不能是“eMule fake 0.49c”),需要转义:"emule 0.49c"
大小选择器帮您根据文件大小选择文件。