当前位置: 首页 >> 欧美电影 >> 黑白魔女库伊拉.迅雷下载[中文字幕].Cruella.2021.2160p.4K高清 >> 正文

黑白魔女库伊拉.迅雷下载[中文字幕].Cruella.2021.2160p.4K高清

2021年06月01日 08:36:40     电影发布:来源于网络     电影分类:欧美电影     评论(0)    

黑白魔女库伊拉.迅雷下载[中文字幕].Cruella.2021.2160p.4K高清 犯罪片 喜剧片 欧美电影 第1张

◎译 名 黑白魔女库伊拉/《101忠狗》真人前传/Cruella de Vil/库伊拉/库伊拉·德维尔/时尚恶女:库伊拉(台)/黑白魔后(港)/黑白魔女

◎片 名 Cruella

◎年 代 2021

◎产 地 美国

◎类 别 喜剧 / 犯罪

◎语 言 英语

◎上映日期 2021-05-28(美国/美国网络) / 2021-06-06(中国大陆)

◎IMDb评分 7.2/10 from 3010 users

◎IMDb链接 https://www.imdb.com/title/tt3228774/

◎豆瓣评分 /10 from 0 users

◎豆瓣链接 https://movie.douban.com/subject/26703121/

◎片 长 134分钟

◎导 演 克雷格·吉勒斯佩 Craig Gillespie

◎编 剧 达纳·福克斯 Dana Fox / 托尼·麦克纳马拉 Tony McNamara / 艾莲·布洛什·麦肯纳 Aline Brosh McKenna / 凯莉·马塞尔 Kelly Marcel / 史蒂夫·齐西斯 Steve Zissis / 道迪·史密斯 Dodie Smith / 杰斯·巴特沃斯 Jez Butterworth

◎主 演 艾玛·斯通 Emma Stone

艾玛·汤普森 Emma Thompson

马克·斯特朗 Mark Strong

保罗·沃尔特·豪泽 Paul Walter Hauser

艾米丽·比查姆 Emily Beecham

乔尔·弗莱 Joel Fry

柯尔比·豪威尔-巴普蒂斯特 Kirby Howell-Baptiste

詹米·德米特鲁 Jamie Demetriou

吉安尼·卡尔切蒂 Gianni Calchetti

约翰·麦克雷 John McCrea

安部春香 Haruka Abe

尼亚姆·林奇 Niamh Lynch

蒂珀·塞弗特·克利夫兰 Tipper Seifert-Cleveland

阿图尔·夏尔马 Atul Sharma

艾薇·维 Evie Wray

克里斯·雷曼 Chris Ryman

马汀·麦格 Martyn Mayger

约翰·艾伦·罗伯茨 John Alan Roberts

杰奎琳·拉姆娜莱恩 Jacqueline Ramnarine

贾格·帕特尔 Jag Patel

妮科尔·亨布拉 Nicholle Hembra

贝恩·科拉科 Bern Collaço

尼克·欧文福特 Nick Owenford

伊斯雷尔·鲁兹 Israel Ruiz

◎标 签 迪士尼 | 艾玛·斯通 | 美国 | 2021 | 喜剧 | EmmaStone | 美国电影 | 电影

◎简 介

影片改编自道迪·史密斯的小说,故事设定在20世纪70年代朋克摇滚革命时期的伦敦,讲述了一个名叫艾丝黛拉(艾玛·斯通 饰)的年轻骗子的故事。艾丝黛拉是一个聪明又有创意的女孩,她决心用自己的设计让自己出名。她和一对欣赏她的恶作剧嗜好的小偷交上了朋友,并能够一起在伦敦的街道上建立自己的生活。有一天,艾丝黛拉的时尚品味吸引了冯·赫尔曼男爵夫人(艾玛·汤普森 饰)的眼球,她是一位时尚界的传奇人物,拥有毁灭性的时尚和可怕的高雅,但他们的关系引发了一系列事件,导致艾丝黛拉去拥抱她的邪恶一面,成为了兼具疯狂、时尚和报复心的库伊拉。

  1. 引用


  2. General

  3. Complete name : Cruella.2021.2160p.DSNP.WEB-DL.DDP5.1.Atmos.DV.HEVC-MZABI.mp4

  4. Format : MPEG-4

  5. Format profile : Base Media / Version 2

  6. Codec ID : mp42 (isom/mp42/dby1)

  7. File size : 16.0 GiB

  8. Duration : 2 h 13 min

  9. Overall bit rate mode : Variable

  10. Overall bit rate : 17.1 Mb/s

  11. Encoded date : UTC 2021-05-28 21:30:09

  12. Tagged date : UTC 2021-05-28 21:30:09


  13. Video

  14. ID : 1

  15. Format : HEVC

  16. Format/Info : High Efficiency Video Coding

  17. Format profile : Main 10@L5@High

  18. HDR format : Dolby Vision, Version 1.0, dvhe.05.06, BL+RPU

  19. Codec ID : dvhe

  20. Codec ID/Info : High Efficiency Video Coding with Dolby Vision

  21. Duration : 2 h 13 min

  22. Bit rate : 16.4 Mb/s

  23. Width : 3 840 pixels

  24. Height : 2 160 pixels

  25. Display aspect ratio : 16:9

  26. Frame rate mode : Constant

  27. Frame rate : 23.976 (24000/1001/53354) FPS

  28. Color space : YUV

  29. Chroma subsampling : 4:2:0

  30. Bit depth : 10 bits

  31. Bits/(Pixel*Frame) : 0.082

  32. Stream size : 15.3 GiB (95%)

  33. Language : English

  34. Default : Yes

  35. Alternate group : 1

  36. Encoded date : UTC 2021-05-28 21:21:15

  37. Tagged date : UTC 2021-05-28 21:31:46

  38. Color range : Full

  39. Codec configuration box : hvcC+dvcC


  40. Audio

  41. ID : 2

  42. Format : E-AC-3 JOC

  43. Format/Info : Enhanced AC-3 with Joint Object Coding

  44. Commercial name : Dolby Digital Plus with Dolby Atmos

  45. Codec ID : ac-3

  46. Duration : 2 h 13 min

  47. Bit rate mode : Constant

  48. Bit rate : 768 kb/s

  49. Maximum bit rate : 811 kb/s

  50. Channel(s) : 6 channels

  51. Channel layout : L R C LFE Ls Rs

  52. Sampling rate : 48.0 kHz

  53. Frame rate : 31.250 FPS (1536 SPF)

  54. Compression mode : Lossy

  55. Stream size : 736 MiB (4%)

  56. Language : English

  57. Service kind : Complete Main

  58. Default : No

  59. Alternate group : 2

  60. Encoded date : UTC 2021-05-28 21:31:38

  61. Tagged date : UTC 2021-05-28 21:31:46

  62. Complexity index : Not present / 16

  63. Number of dynamic objects : 15

  64. Bed channel count : 1 channel

  65. Bed channel configuration : LFE


  66. Text #1

  67. ID : 3

  68. Format : Timed Text

  69. Codec ID : tx3g

  70. Duration : 2 h 7 min

  71. Bit rate mode : Variable

  72. Bit rate : 52 b/s

  73. Stream size : 48.5 KiB (0%)

  74. Title : English

  75. Language : English

  76. Forced : No

  77. Encoded date : UTC 2021-05-28 21:31:43

  78. Tagged date : UTC 2021-05-28 21:31:46


  79. Text #2

  80. ID : 4

  81. Format : Timed Text

  82. Codec ID : tx3g

  83. Duration : 2 h 11 min

  84. Bit rate mode : Variable

  85. Bit rate : 58 b/s

  86. Stream size : 56.4 KiB (0%)

  87. Title : English [SDH]

  88. Language : English

  89. Forced : No

  90. Encoded date : UTC 2021-05-28 21:31:43

  91. Tagged date : UTC 2021-05-28 21:31:46


  92. Text #3

  93. ID : 5

  94. Format : Timed Text

  95. Codec ID : tx3g

  96. Duration : 2 h 13 min

  97. Bit rate mode : Variable

  98. Bit rate : 49 b/s

  99. Stream size : 47.6 KiB (0%)

  100. Title : Brazilian Portuguese

  101. Language : Portuguese

  102. Forced : No

  103. Encoded date : UTC 2021-05-28 21:31:43

  104. Tagged date : UTC 2021-05-28 21:31:46


  105. Text #4

  106. ID : 6

  107. Format : Timed Text

  108. Codec ID : tx3g

  109. Duration : 2 h 13 min

  110. Bit rate mode : Variable

  111. Bit rate : 54 b/s

  112. Stream size : 53.3 KiB (0%)

  113. Title : French Canadian

  114. Language : French

  115. Forced : No

  116. Encoded date : UTC 2021-05-28 21:31:43

  117. Tagged date : UTC 2021-05-28 21:31:46


  118. Text #5

  119. ID : 7

  120. Format : Timed Text

  121. Codec ID : tx3g

  122. Duration : 2 h 13 min

  123. Bit rate mode : Variable

  124. Bit rate : 47 b/s

  125. Stream size : 46.2 KiB (0%)

  126. Title : Danish

  127. Language : Danish

  128. Forced : No

  129. Encoded date : UTC 2021-05-28 21:31:43

  130. Tagged date : UTC 2021-05-28 21:31:46


  131. Text #6

  132. ID : 8

  133. Format : Timed Text

  134. Codec ID : tx3g

  135. Duration : 2 h 13 min

  136. Bit rate mode : Variable

  137. Bit rate : 45 b/s

  138. Stream size : 44.3 KiB (0%)

  139. Title : German

  140. Language : German

  141. Forced : No

  142. Encoded date : UTC 2021-05-28 21:31:43

  143. Tagged date : UTC 2021-05-28 21:31:46


  144. Text #7

  145. ID : 9

  146. Format : Timed Text

  147. Codec ID : tx3g

  148. Duration : 2 h 13 min

  149. Bit rate mode : Variable

  150. Bit rate : 46 b/s

  151. Stream size : 44.8 KiB (0%)

  152. Title : European Spanish

  153. Language : Spanish

  154. Forced : No

  155. Encoded date : UTC 2021-05-28 21:31:44

  156. Tagged date : UTC 2021-05-28 21:31:46


  157. Text #8

  158. ID : 10

  159. Format : Timed Text

  160. Codec ID : tx3g

  161. Duration : 2 h 13 min

  162. Bit rate mode : Variable

  163. Bit rate : 50 b/s

  164. Stream size : 49.0 KiB (0%)

  165. Title : Finnish

  166. Language : Finnish

  167. Forced : No

  168. Encoded date : UTC 2021-05-28 21:31:44

  169. Tagged date : UTC 2021-05-28 21:31:46


  170. Text #9

  171. ID : 11

  172. Format : Timed Text

  173. Codec ID : tx3g

  174. Duration : 2 h 13 min

  175. Bit rate mode : Variable

  176. Bit rate : 47 b/s

  177. Stream size : 45.9 KiB (0%)

  178. Title : French

  179. Language : French

  180. Forced : No

  181. Encoded date : UTC 2021-05-28 21:31:44

  182. Tagged date : UTC 2021-05-28 21:31:46


  183. Text #10

  184. ID : 12

  185. Format : Timed Text

  186. Codec ID : tx3g

  187. Duration : 2 h 13 min

  188. Bit rate mode : Variable

  189. Bit rate : 49 b/s

  190. Stream size : 47.5 KiB (0%)

  191. Title : Italian

  192. Language : Italian

  193. Forced : No

  194. Encoded date : UTC 2021-05-28 21:31:44

  195. Tagged date : UTC 2021-05-28 21:31:46


  196. Text #11

  197. ID : 13

  198. Format : Timed Text

  199. Codec ID : tx3g

  200. Duration : 2 h 7 min

  201. Bit rate mode : Variable

  202. Bit rate : 53 b/s

  203. Stream size : 49.9 KiB (0%)

  204. Title : Korean

  205. Language : Italian

  206. Forced : No

  207. Encoded date : UTC 2021-05-28 21:31:44

  208. Tagged date : UTC 2021-05-28 21:31:46


  209. Text #12

  210. ID : 14

  211. Format : Timed Text

  212. Codec ID : tx3g

  213. Duration : 2 h 13 min

  214. Bit rate mode : Variable

  215. Bit rate : 42 b/s

  216. Stream size : 41.4 KiB (0%)

  217. Title : Dutch

  218. Language : Dutch

  219. Forced : No

  220. Encoded date : UTC 2021-05-28 21:31:44

  221. Tagged date : UTC 2021-05-28 21:31:46


  222. Text #13

  223. ID : 15

  224. Format : Timed Text

  225. Codec ID : tx3g

  226. Duration : 2 h 13 min

  227. Bit rate mode : Variable

  228. Bit rate : 45 b/s

  229. Stream size : 44.0 KiB (0%)

  230. Title : Norwegian

  231. Language : Norwegian

  232. Forced : No

  233. Encoded date : UTC 2021-05-28 21:31:44

  234. Tagged date : UTC 2021-05-28 21:31:46


  235. Text #14

  236. ID : 16

  237. Format : Timed Text

  238. Codec ID : tx3g

  239. Duration : 2 h 13 min

  240. Bit rate mode : Variable

  241. Bit rate : 46 b/s

  242. Stream size : 44.8 KiB (0%)

  243. Title : Polish

  244. Language : Portuguese

  245. Forced : No

  246. Encoded date : UTC 2021-05-28 21:31:45

  247. Tagged date : UTC 2021-05-28 21:31:46


  248. Text #15

  249. ID : 17

  250. Format : Timed Text

  251. Codec ID : tx3g

  252. Duration : 2 h 13 min

  253. Bit rate mode : Variable

  254. Bit rate : 49 b/s

  255. Stream size : 47.9 KiB (0%)

  256. Title : Portuguese

  257. Language : Portuguese

  258. Forced : No

  259. Encoded date : UTC 2021-05-28 21:31:45

  260. Tagged date : UTC 2021-05-28 21:31:46


  261. Text #16

  262. ID : 18

  263. Format : Timed Text

  264. Codec ID : tx3g

  265. Duration : 2 h 7 min

  266. Bit rate mode : Variable

  267. Bit rate : 52 b/s

  268. Stream size : 48.9 KiB (0%)

  269. Title : Spanish

  270. Language : Spanish

  271. Forced : No

  272. Encoded date : UTC 2021-05-28 21:31:45

  273. Tagged date : UTC 2021-05-28 21:31:46


  274. Text #17

  275. ID : 19

  276. Format : Timed Text

  277. Codec ID : tx3g

  278. Duration : 2 h 13 min

  279. Bit rate mode : Variable

  280. Bit rate : 44 b/s

  281. Stream size : 42.9 KiB (0%)

  282. Title : Swedish

  283. Language : Swedish

  284. Forced : No

  285. Encoded date : UTC 2021-05-28 21:31:45

  286. Tagged date : UTC 2021-05-28 21:31:46


  287. Text #18

  288. ID : 20

  289. Format : Timed Text

  290. Codec ID : tx3g

  291. Duration : 2 h 7 min

  292. Bit rate mode : Variable

  293. Bit rate : 50 b/s

  294. Stream size : 46.4 KiB (0%)

  295. Title : Chinese Simplified

  296. Language : Portuguese

  297. Forced : No

  298. Encoded date : UTC 2021-05-28 21:31:45

  299. Tagged date : UTC 2021-05-28 21:31:46


  300. Text #19

  301. ID : 21

  302. Format : Timed Text

  303. Codec ID : tx3g

  304. Duration : 2 h 13 min

  305. Bit rate mode : Variable

  306. Bit rate : 42 b/s

  307. Stream size : 41.2 KiB (0%)

  308. Title : Mandarin (Guoyu)

  309. Language : Portuguese

  310. Forced : No

  311. Encoded date : UTC 2021-05-28 21:31:45

  312. Tagged date : UTC 2021-05-28 21:31:46


  313. Text #20

  314. ID : 22

  315. Format : Timed Text

  316. Codec ID : tx3g

  317. Duration : 2 h 13 min

  318. Bit rate mode : Variable

  319. Bit rate : 42 b/s

  320. Stream size : 41.3 KiB (0%)

  321. Title : Chinese Traditional

  322. Language : Portuguese

  323. Forced : No

  324. Encoded date : UTC 2021-05-28 21:31:45

  325. Tagged date : UTC 2021-05-28 21:31:46

复制代码


文件下载


除非特别注明,本文『黑白魔女库伊拉.迅雷下载[中文字幕].Cruella.2021.2160p.4K高清』来源于互联网机器人自动抓取,非本站原创。 浮游电影网不对本文拥有版权,如有侵犯,请联系邮箱:fuyouu#yandex.com[#换成@]投诉。我们会在15个工作日内删除。 但烦请转载时请标明出处:“本文转载于『浮游电影网』,原文地址:https://www.fuyouu.com/12217.html

评论吧骚年!

发表你的见解   

昵称*

E-mail*(建议输入,以便收到博主回复的提示邮件)

验证码*

您可以使用eMule或eMule Mod(Windows)、aMule(Win、Linux、Mac)等软件下载eD2k链接。。
eMule收藏集(.emulecollection)文件是您选中的所有链接的列表文件。eMule可以直接下载它们。
按住SHIFT键选择可以选中多个选择框。
可用文件名和大小选择器来选择文件。
文件名选择器帮您根据文件名称或后缀来选择文件。不分大小写。
符号使用:
和:空格( )、+
不包含:-
或:|
转义:一对英文引号("");
匹配开头:^
匹配结尾:$
例如:
选中所有名称中包含有“eMule”或“0.49c”字眼,但不包含有“exe”字眼的:emule|0.49c -exe
选中所有名称的开头是“eMule”,结尾是“0.49c”的:^emule 0.49c$
选中所有名称中带有“eMule 0.49c”的(必须是“eMule 0.49c”,中间没有别的字符,不能是“eMule fake 0.49c”),需要转义:"emule 0.49c"
大小选择器帮您根据文件大小选择文件。